v

您的位置:VeryCD动漫动漫周边

动漫资源事务区


《光之美少女Fresh Precure2009圣诞福利包》(Let's!Fresh Precure!H@ppy Together!!!)[ED1&ED2&红色期待DVD2][HDTV]

  • 状态: 精华资源
  • 摘要:
    发行时间2009年10月21日
    对白语言日语
    文字语言日文
  • 时间: 2009/12/09 02:50:19 发布 | 2009/12/29 11:24:24 更新
  • 分类: 动漫  动漫周边 

imlhk

精华资源: 5

全部资源: 22

相关: 分享到新浪微博   转播到腾讯微博   分享到开心网   分享到人人   分享到QQ空间   订阅本资源RSS更新   美味书签  subtitle
该内容尚未提供权利证明,无法提供下载。
中文名光之美少女Fresh Precure2009圣诞福利包
英文名Let's!Fresh Precure!H@ppy Together!!!
别名フレッシュプリキュア 主题歌
资源格式HDTV
版本[ED1&ED2&红色期待DVD2]
发行时间2009年10月21日
地区日本
对白语言日语
文字语言日文
简介

IPB Image

【内容简介】

封面图片来自 http://www.pixiv.net/member.php?id=860111
图片作者:wanco
谨向这位才华横溢的作者wanco表示感谢和敬意。
该圣诞福利包是通过各种P2P软件从网络上收集来的。包含了光之美少女 Fresh Precure的片尾曲ED1和ED2的各种版本。DVDrip文件是从《红色期待DVD2》里抠出来的,本来还有1枚《粉红色期待DVD1》,快进看了看都是TV版里的变身镜头集,这里就不公布了,有兴趣的人直接看TV版吧。关于这个作品的电影版,可以参考下面的在线视频链接,影片的配乐制作的气势恢宏,光听配乐的话真难相信这是拍给少年少女看的,剧情内容就很老套了,不提也罢。
对于片尾3DCG舞蹈的制作有兴趣的人,可以找找《CG world》2009年7月号的杂志翻看详细的制作过程,不过看了真相以后可能会感到挫折:现实太残酷了,生成动作捕捉点座标文件的原型舞蹈演员是几位大婶……

【视频信息】

视频编码:
Format : MPEG-4
Format profile : Base Media
Codec ID : isom
File size : 540 MiB
Duration : 19mn 1s
Overall bit rate : 3 964 Kbps
Encoded date : UTC 2009-11-30 16:13:23
Tagged date : UTC 2009-11-30 16:13:23
Video
ID : 1
Format : AVC
Format/Info : Advanced Video Codec
Format profile : High@L4.1
Format settings, CABAC : Yes
Format settings, ReFrames : 4 frames
Codec ID : avc1
Codec ID/Info : Advanced Video Coding
Duration : 19mn 1s
Bit rate mode : Variable
Bit rate : 3 746 Kbps
Maximum bit rate : 13.6 Mbps
Width : 1 280 pixels
Height : 720 pixels
Display aspect ratio : 16:9
Frame rate mode : Variable
Frame rate : 27.134 fps
Minimum frame rate : 14.985 fps
Maximum frame rate : 119.880 fps
Original frame rate : 29.970 fps
Resolution : 24 bits
Colorimetry : 4:2:0
Scan type : Progressive
Bits/(Pixel*Frame) : 0.150
Stream size : 510 MiB (94%)
Writing library : x264 core 67 r1160 79377d7
Encoding settings : cabac=1 / ref=4 / deblock=1:0:0 / analyse=0x3:0x113 / me=esa / subme=9 / psy_rd=1.0:0.0 / mixed_ref=0 / me_range=32 / chroma_me=1 / trellis=0 / 8x8dct=1 / cqm=0 / deadzone=21,11 / chroma_qp_offset=-2 / threads=8 / nr=0 / decimate=1 / mbaff=0 / bframes=3 / b_pyramid=0 / b_adapt=2 / b_bias=0 / direct=3 / wpredb=0 / keyint=240 / keyint_min=1 / scenecut=70 / rc=crf / crf=21.0 / qcomp=0.70 / qpmin=10 / qpmax=34 / qpstep=10 / ip_ratio=1.40 / pb_ratio=1.30 / aq=1:1.00
Encoded date : UTC 2009-11-30 15:02:05
Tagged date : UTC 2009-12-01 11:29:34
Audio
ID : 2
Format : AAC
Format/Info : Advanced Audio Codec
Format version : Version 4
Format profile : LC
Format settings, SBR : No
Codec ID : 40
Duration : 19mn 1s
Bit rate mode : Variable
Bit rate : 215 Kbps
Maximum bit rate : 294 Kbps
Channel(s) : 2 channels
Channel positions : L R
Sampling rate : 48.0 KHz
Resolution : 16 bits
Stream size : 29.2 MiB (5%)
Encoded date : UTC 2009-12-01 16:12:17
Tagged date : UTC 2009-12-01 11:29:34
字幕信息:无

【作品列表】

IPB Image
IPB Image
http://www.tudou.com/v/CuzJkqSg1fU

视频详细介绍
シリーズ放送6年目に突入した大人気アニメ: プリキュア! 2月より一新した「フレッシュプリキュア!」のエンディングテーマのキーワードはダンス。今作も少しおませなお嬢ちゃんが、かわいく踊れるエンディングテーマに仕上がっている!! 超期待のシングル。

【写在最后】

网盘支援
http://u.115.com/file/f58a9147bb

正在读取……

这里是其它用户补充的资源(我也要补充):

暂无补充资源
正在加载,请稍等...

点击查看所有14网友评论

 

(?) [公告]留口水、评论相关规则 | [活动]每日签到 轻松领取电驴经验

    小贴士:
  1. 类似“顶”、“沙发”之类没有营养的文字,对勤劳贡献的楼主来说是令人沮丧的反馈信息。
  2. 提问之前请再仔细看一遍楼主的说明,或许是您遗漏了。
  3. 勿催片。请相信驴友们对分享是富有激情的,如果确有更新版本,您一定能搜索到。
  4. 请勿到处挖坑绊人、招贴广告。既占空间让人厌烦,又没人会搭理,于人于己都无利。
  5. 如果您发现自己的评论不见了,请参考以上4条。