v

您的位置:VeryCD动漫电视动画

动漫资源事务区


《绝对无敌雷神王》(Zettai Muteki Raijin-Oh)[1991年04月03日经典][HKG字幕组][全51集+OVA]更新完毕[RMVB]

  • 状态: 精华资源
  • 摘要:
    发行时间1991年04月03日
    语言日语
  • 时间: 2009/12/06 16:14:11 发布 | 2009/12/15 21:14:27 更新
  • 分类: 动漫  电视动画 

faikioscarm

精华资源: 8

全部资源: 9

相关: 分享到新浪微博   转播到腾讯微博   分享到开心网   分享到人人   分享到QQ空间   订阅本资源RSS更新   美味书签  subtitle
该内容尚未提供权利证明,无法提供下载。
中文名绝对无敌雷神王
英文名Zettai Muteki Raijin-Oh
资源格式RMVB
版本[1991年04月03日经典][HKG字幕组][全51集+OVA]更新完毕
发行时间1991年04月03日
导演川瀬敏文
地区日本
语言日语
简介

IPB Image

【作品简介】
绝对无敌(日文:絶対无敌ライジンオー,英文:Zettai Muteki Raijin-Oh),是由日昇动画所制作的Eldran系列第一部作品,於1991年4月3日至1992年3月25日间,在东京电视台所播映的动画,播毕后并有发行四部OVA,分别为电视版总集篇《5年3组的回忆》与描述主角群在事情结束之后,昇上六年级的故事的《初恋大作战!》、《阳昇城机关梦日记》、《大家是地球防卫组》三作。2004年发售重新制作的限量DVD-BOX。

台湾於1994年至1995年间於台湾电视公司播出本作[1],并由木棉花与博英社发行电视本篇及OVA(并不包括《5年3组的回忆》)的录影带,之后又相继在东视综合台、中都卡通台、卫视中文台等频道数度重播过,目前最新一次的放映则是在MOMO亲子台。而香港无綫电视及中国大陆亦也曾有播出。

【故事简介】
在广阔无际的宇宙,来自异世界的邪恶组织,覬覦著地球,打算攻击侵略,而为了能快速攻佔,便发动了一个能吸收意志而能发展成邪恶生命体的武器,只不过发射之前,被守护地球的正义使者发觉,而展开反击,然而因为邪恶组织的一个动作,使正义使者不幸失败,随著机体落置地球的某个城市的小学,而此时也就开始了,这个小学的某个班级,守护地球的任务......

【STAFF】

* 企划:日昇动画
* 原作:矢立肇
* 系列构成:园田英树
* 人物设定:武内启
* 机械设计:やまだたかひろ(山国高裕)
* 美术监督:池田繁美
* 摄影监督:鸟越一志
* 编集:瀬山武司
* 音响监督:山崎あきら
* 音乐:田中公平
* 设定制作:谷口悟朗
* 制作进行:吉村章
* 监督:川瀬敏文
* 制作人:仓林伸介、藤波俊彦、内田健二
* 制作:株式会社テレビ东京、株式会社読売広告社、株式会社サンライズ
* 著作:©1991 SUNRISE INC.・テレビ东京


【CAST】

* 向仁(日向仁):松本梨香(日本)
* 月飞(月城飞鸟):岩坪理江(日本)
* 星吼儿(星山吼儿):丸田麻里(日本)
* 阿明(今村あきら):南杏子(日本)
* 吉明(小川よしあき):佐藤智惠(日本)
* 林勉(小岛勉):岛田敏(日本)
* 小则(近藤ひでのり):吉田古奈美(日本)
* 大方(佐藤大介):塩屋浩三(日本)
* 广志(高森ひろし):松井摩味(日本)
* 田丽(池田れい子):铃木砂织(日本)
* 白玛莉(白鸟マリア):吉田古奈美(日本)
* 元春琪(春野きらら):南杏子(日本)
* 美真(真野美纪):铃木砂织(日本)
* 篠田俊太郎:梁田清之(日本)
* 姫木るる子:林原惠(日本)
* 矢沢永吉郎:石井敏郎(日本)
* 谷口 六郎:上村典子(日本)
* 日向父亲:梁田清之;岛田敏(日本)
* 日向母亲:南杏子(日本)
* 日向 阳太郎:铃木れい子(日本)
* 月城父亲:秋元羊介(日本)
* 月城母亲:林原めぐみ(日本)
* 蓝光人(エルドラン):岛田敏(日本)
* 武田长官:西村知道(日本)
* 洛儿(キャロル):平野正人(日本)
* 皇帝华沙(ワルーサ):笹冈繁蔵(日本)
* 撒旦(ベルゼブ):梁田清之(日本)
* 法儿洁(ファルゼブ): 林原惠(日本)
* 泰达(タイダー):吉村よう(1~38集)、辻村真人(39集以后)
* 恶煞(ゴクドー): 大塚明夫(日本)


代码
Format                           : RealMedia
File size                        : 105 MiB
Duration                         : 24mn 43s
Overall bit rate                 : 584 Kbps
Performer                        : 天河名人
Copyright                        : HKG

Video
ID                               : 1
Format                           : RealVideo 4
Codec ID                         : RV40
Codec ID/Info                    : Based on AVC (H.264), Real Player 9
Duration                         : 24mn 43s
Bit rate                         : 456 Kbps
Width                            : 640 pixels
Height                           : 480 pixels
Display aspect ratio             : 4:3
Frame rate                       : 23.000 fps
Resolution                       : 12 bits
Bits/(Pixel*Frame)               : 0.064
Stream size                      : 80.5 MiB (77%)

Audio
ID                               : 0
Format                           : AAC
Format/Info                      : Advanced Audio Codec
Codec ID                         : raac
Codec ID/Info                    : Real Player 9
Duration                         : 24mn 43s
Bit rate                         : 128 Kbps
Channel(s)                       : 2 channels
Sampling rate                    : 44.1 KHz
Resolution                       : 16 bits
Stream size                      : 22.6 MiB (22%)



【载图】
IPB Image
IPB Image
IPB Image

引用
12月16日开始,补源时间:2点早上至3点下午

正在读取……

这里是其它用户补充的资源(我也要补充):

暂无补充资源
正在加载,请稍等...

点击查看所有77网友评论

 

(?) [公告]留口水、评论相关规则 | [活动]每日签到 轻松领取电驴经验

    小贴士:
  1. 类似“顶”、“沙发”之类没有营养的文字,对勤劳贡献的楼主来说是令人沮丧的反馈信息。
  2. 提问之前请再仔细看一遍楼主的说明,或许是您遗漏了。
  3. 勿催片。请相信驴友们对分享是富有激情的,如果确有更新版本,您一定能搜索到。
  4. 请勿到处挖坑绊人、招贴广告。既占空间让人厌烦,又没人会搭理,于人于己都无利。
  5. 如果您发现自己的评论不见了,请参考以上4条。