v

您的位置:VeryCD动漫剧场动画

动漫资源事务区


《特种部队:坚定》(G.I. Joe: Resolute)[DVDRip]

  • 状态: 精华资源
  • 摘要:
    发行时间2009年
    语言英语
  • 时间: 2009/12/01 21:45:26 发布 | 2009/12/02 09:26:19 更新
  • 分类: 动漫  剧场动画 

sky200700

精华资源: 193

全部资源: 193

相关: 分享到新浪微博   转播到腾讯微博   分享到开心网   分享到人人   分享到QQ空间   订阅本资源RSS更新   美味书签  subtitle
该内容尚未提供权利证明,无法提供下载。
中文名特种部队:坚定
英文名G.I. Joe: Resolute
资源格式DVDRip
发行时间2009年
地区美国
语言英语
简介

IPB Image

【imdb链接】: http://www.imdb.com/title/tt1259299/
【imdb评分】: 8.1/10 (103 votes)
【片  长】58 min

【简  介】

  孩之宝(Hasbro)宣布,面向成人影迷的迷你动画系列《G.I. Joe: Resolute》,将要通过卡通频道的Adult Swim电视频道和网络播出。基于经典的《特种部队》(G.I. Joe)故事,孩之宝为这部新故事创作了60分钟的动画内容,并将作为11集的剧集播出。

  4月17日开始,影迷们将能够在AdultSwim网站看到这部新迷你动画剧集的前5分钟。这一系列被分为10部5分钟的剧集和1部10分钟的结局。在4月17日播出第一集后,随后的剧集将在Adult Swim网站中播放。结局将于4月25日午夜,在Adult Swim播出。这部电视系列不仅能够在线观看所有剧集,影迷们也可以第一次观看到《G.I. Joe: Resolute》最后10分钟的故事。所有的剧集,包括结局,在播出后,都将可以在线观看。

  对于80年代那些观看《特种部队》长大的成人影迷来... (展开全部)   孩之宝(Hasbro)宣布,面向成人影迷的迷你动画系列《G.I. Joe: Resolute》,将要通过卡通频道的Adult Swim电视频道和网络播出。基于经典的《特种部队》(G.I. Joe)故事,孩之宝为这部新故事创作了60分钟的动画内容,并将作为11集的剧集播出。

  4月17日开始,影迷们将能够在AdultSwim网站看到这部新迷你动画剧集的前5分钟。这一系列被分为10部5分钟的剧集和1部10分钟的结局。在4月17日播出第一集后,随后的剧集将在Adult Swim网站中播放。结局将于4月25日午夜,在Adult Swim播出。这部电视系列不仅能够在线观看所有剧集,影迷们也可以第一次观看到《G.I. Joe: Resolute》最后10分钟的故事。所有的剧集,包括结局,在播出后,都将可以在线观看。

  对于80年代那些观看《特种部队》长大的成人影迷来说,《G.I. Joe: Resolute》的片段在2008年的G.I. JOE Convention、JoeCon年会和圣地亚哥动漫展(San Diego Comic-Con)中提前播放,并受到了热烈的欢迎,从那时起,影迷们就一直热切期待着官方公布这一系列的播放日期。

  G.I. JOE 娱乐营销(G.I. JOE Entertainment Marketing)的经理Michael Verrecchia表示,“我们很高兴能把动画系列《G.I. Joe: Resolute》带给《特种部队》的影迷们。Adult Swim是播放这一系列的完美平台,这一系列展现了比之前动画更先进的动画风格。”

  孩之宝和监制Sam Register,以及Titmouse Studios的创作团队,包括资深动画导演Joaquim Dos Santos共同制作了这部动画系列。Joaquim Dos Santos曾和获奖漫画作家Warren Ellis有过紧密的合作,后者曾为整部系列执笔。这个高度受重视的团队给这一系列带来了紧张、激烈的感觉,剧集将突出《G.I. JOE vs. COBRA》中的最受欢迎的角色。像 Duke、Snake Eyes、Scarlett和Roadblock这样的英雄人物,将同眼镜蛇指挥官(Cobra Commander)、Destro、Baroness和Storm Shadow展开激烈的战斗。

代码
General
Format                           : AVI
Format/Info                      : Audio Video Interleave
File size                        : 699 MiB
Duration                         : 58mn 21s
Overall bit rate                 : 1 676 Kbps
Writing application              : VirtualDubMod 1.5.4.1 (build 2178/release)
Writing library                  : VirtualDubMod build 2178/release

Video
ID                               : 0
Format                           : MPEG-4 Visual
Format profile                   : AdvancedSimple@L5
Format settings, BVOP            : Yes
Format settings, QPel            : No
Format settings, GMC             : No warppoints
Format settings, Matrix          : Default (H.263)
Codec ID                         : XVID
Codec ID/Hint                    : XviD
Duration                         : 58mn 21s
Bit rate                         : 1 218 Kbps
Width                            : 640 pixels
Height                           : 352 pixels
Display aspect ratio             : 16:9
Frame rate                       : 23.976 fps
Resolution                       : 24 bits
Colorimetry                      : 4:2:0
Scan type                        : Progressive
Bits/(Pixel*Frame)               : 0.226
Stream size                      : 508 MiB (73%)
Writing library                  : XviD 1.2.1 (UTC 2008-12-04)

Audio
ID                               : 1
Format                           : AC-3
Format/Info                      : Audio Coding 3
Codec ID                         : 2000
Duration                         : 58mn 21s
Bit rate mode                    : Constant
Bit rate                         : 448 Kbps
Channel(s)                       : 6 channels
Channel positions                : Front: L C R, Surround: L R, LFE
Sampling rate                    : 48.0 KHz
Video delay                      : 1s 905ms
Stream size                      : 187 MiB (27%)
Alignment                        : Split accross interleaves
Interleave, duration             : 42 ms (1.00 video frame)

正在读取……

这里是其它用户补充的资源(我也要补充):

暂无补充资源
正在加载,请稍等...

点击查看所有93网友评论

 

(?) [公告]留口水、评论相关规则 | [活动]每日签到 轻松领取电驴经验

    小贴士:
  1. 类似“顶”、“沙发”之类没有营养的文字,对勤劳贡献的楼主来说是令人沮丧的反馈信息。
  2. 提问之前请再仔细看一遍楼主的说明,或许是您遗漏了。
  3. 勿催片。请相信驴友们对分享是富有激情的,如果确有更新版本,您一定能搜索到。
  4. 请勿到处挖坑绊人、招贴广告。既占空间让人厌烦,又没人会搭理,于人于己都无利。
  5. 如果您发现自己的评论不见了,请参考以上4条。