v

您的位置:VeryCD动漫OVA

动漫资源事务区


《Cencoroll》(Cencoroll)[里·H&C字幕组][1024×576p 简 MP4][DVDRip]

  • 状态: 精华资源
  • 摘要:
    发行时间2009年11月07日
    语言日语
  • 时间: 2009/11/27 21:55:03 发布 | 2009/11/28 00:00:34 更新
  • 分类: 动漫  OVA 

vivianna

精华资源: 20

全部资源: 20

相关: 分享到新浪微博   转播到腾讯微博   分享到开心网   分享到人人   分享到QQ空间   订阅本资源RSS更新   美味书签  subtitle
该内容尚未提供权利证明,无法提供下载。
中文名Cencoroll
英文名Cencoroll
别名Cencoroll
资源格式DVDRip
版本[里·H&C字幕组][1024×576p 简 MP4]
发行时间2009年11月07日
地区日本
语言日语
简介

IPB Image

【原名】Cencoroll
【中文名】Cencoroll
【英文名】Cencoroll
【字幕】简体内嵌
【格式】MP4


【在线预览】



【STORY】

平凡都市的楼顶,突如其来出现的巨大怪兽。自卫队出现,整个城市陷入慌乱。少女「雪」偶尔知晓了同个学校的少年「哲」的秘密。他饲养了一只与怪兽非常相似的生物「千子」。因为天生的好奇心与胆量,「雪」对「哲」与「千子」的关系产生了兴趣。紧接着,一个操纵着那个巨大怪兽的少年出现了,战斗一触即发。他们究竟为何而战?他们究竟又是谁?以及被卷入战斗的「雪」又将何去何从?

【STAFF】

监督·脚本·作画:宇木敦哉
音乐:ryo(supercell)
制作:株式会社think/uki partners LLP
监制:aniplex/动画革命东京
发行:aniplex

【CAST】

雪:花泽香菜
哲:下野纮
舒:木村良平
惠:森谷里美

【人物介绍】

http://i46.tinypic.com/2hcf0o0.jpg

【官方网站】

http://www.cencoroll.com/

代码

   General
      Complete name :[HC][Cencoroll][1024×576][GB][142D23B2].mp4
      Format : MPEG-4
      Format profile : Base Media
      Codec ID : isom
      File size : 170 MiB
      Duration : 26mn 57s
      Overall bit rate : 881 Kbps
      Encoded date : UTC 2009-11-24 09:46:11
      Tagged date : UTC 2009-11-24 09:46:11
   Video #1
      ID : 1
      Format : AVC
      Format/Info : Advanced Video Codec
      Format profile : High@L4.1
      Format settings, CABAC : Yes
      Format settings, ReFrames : 4 frames
      Codec ID : avc1
      Codec ID/Info : Advanced Video Coding
      Duration : 26mn 57s
      Bit rate mode : Variable
      Bit rate : 814 Kbps
      Nominal bit rate : 1 500 Kbps
      Maximum bit rate : 6 215 Kbps
      Width : 1 024 pixels
      Height : 576 pixels
      Display aspect ratio : 16:9
      Frame rate mode : Constant
      Frame rate : 23.976 fps
      Resolution : 24 bits
      Colorimetry : 4:2:0
      Scan type : Progressive
      Bits/(Pixel*Frame) : 0.058
      Stream size : 157 MiB (92%)
      Writing library : x264 core 68 r1183M f21daff
      Encoding settings : cabac=1 / ref=4 / deblock=1:-2:-1 / analyse=0x3:0x113 / me=umh / subme=7 / psy_rd=1.0:0.0 / mixed_ref=1 / me_range=16 / chroma_me=1 / trellis=2 / 8x8dct=1 / cqm=0 / deadzone=21,11 / chroma_qp_offset=-2 / threads=3 / nr=0 / decimate=1 / mbaff=0 / bframes=3 / b_pyramid=0 / b_adapt=2 / b_bias=0 / direct=3 / wpredb=1 / keyint=250 / keyint_min=25 / scenecut=40 / rc=2pass / bitrate=1500 / ratetol=1.0 / qcomp=0.60 / qpmin=10 / qpmax=51 / qpstep=4 / cplxblur=20.0 / qblur=0.5 / vbv_maxrate=50000 / vbv_bufsize=50000 / ip_ratio=1.40 / pb_ratio=1.30 / aq=1:1.00 / cabac=1 / ref=4 / deblock=1:-2:-1 / analyse=0x3:0x113 / me=umh / subme=7 / psy_rd=1.0:0.0 / mixed_ref=1 / me_range=16 / chroma_me=1 / trellis=2 / 8x8dct=1 / cqm=0 / deadzone=21,11 / chroma_qp_offset=-2 / threads=3 / nr=0 / decimate=1 / mbaff=0 / bframes=3 / b_pyramid=0 / b_adapt=2 / b_bias=0 / direct=3 / wpredb=1 / keyint=250 / keyint_min=25 / scenecut=40 / rc=2pass / bitrate=1500 / ratetol=1.0 / qcomp=0.60 / qpmin=10 / qpmax=51 / qpstep=4 / cplxblur=20.0 / qblur=0.5 / vbv_maxrate=50000 / vbv_bufsize=50000 / ip_ratio=1.40 / pb_ratio=1.30 / aq=1:1.00
      Encoded date : UTC 2009-11-23 10:53:33
      Tagged date : UTC 2009-11-24 09:47:12
   Audio #2
      ID : 2
      Format : AAC
      Format/Info : Advanced Audio Codec
      Format version : Version 4
      Format profile : LC
      Format settings, SBR : Yes
      Format settings, PS : No
      Codec ID : 40
      Duration : 26mn 57s
      Bit rate mode : Variable
      Bit rate : 64.0 Kbps
      Maximum bit rate : 85.0 Kbps
      Channel(s) : 2 channels
      Channel positions : L R
      Sampling rate : 48.0 KHz
      Resolution : 16 bits
      Stream size : 12.3 MiB (7%)
    

正在读取……

这里是其它用户补充的资源(我也要补充):

kidy98 2009/11/30 09:45:16 补充
Cencoroll Start Book.推荐对画风有爱者~

该内容尚未提供权利证明,无法提供下载。
正在加载,请稍等...

点击查看所有61网友评论

 

(?) [公告]留口水、评论相关规则 | [活动]每日签到 轻松领取电驴经验

    小贴士:
  1. 类似“顶”、“沙发”之类没有营养的文字,对勤劳贡献的楼主来说是令人沮丧的反馈信息。
  2. 提问之前请再仔细看一遍楼主的说明,或许是您遗漏了。
  3. 勿催片。请相信驴友们对分享是富有激情的,如果确有更新版本,您一定能搜索到。
  4. 请勿到处挖坑绊人、招贴广告。既占空间让人厌烦,又没人会搭理,于人于己都无利。
  5. 如果您发现自己的评论不见了,请参考以上4条。