v

您的位置:VeryCD动漫电视动画

动漫资源事务区


《钢之炼金术师》(Fullmetal Alchemist)[mix-raws][更新8.57][x264 AAC][无字幕][1080P][BDRip]

  • 状态: 精华资源
  • 摘要:
    发行时间2009年
    语言日语
  • 时间: 2009/11/26 15:21:25 发布 | 2011/09/11 15:59:21 更新
  • 分类: 动漫  电视动画 

csbeyond

精华资源: 179

全部资源: 180

相关: 分享到新浪微博   转播到腾讯微博   分享到开心网   分享到人人   分享到QQ空间   订阅本资源RSS更新   美味书签  subtitle
该内容尚未提供权利证明,无法提供下载。
中文名钢之炼金术师
英文名Fullmetal Alchemist
别名Hagane no Renkinjutsushi (2009)
资源格式BDRip
版本[mix-raws][更新8.57][x264 AAC][无字幕][1080P]
发行时间2009年
地区日本
语言日语
简介

IPB Image
VOL9封面

之前Yousei-raws发的 估计是坑掉了 下面重发另一版 本地已经下全 不必担心坑掉



【字幕信息】 无字幕

【视频尺寸】 BDrip 1920x1080 x264 AAC

【吐槽】


[/b]


【内容介绍】

由荒川弘老师原着的人气少年冒险漫画「钢之炼金术师」,至今发行了21卷单行本,在2003年由骨头社改编为全51话的年番动画,使其人气更上一层楼。犹记得当荧幕最后停顿在艾尔利克兄弟同时举手向天那一刻,无数FANS的依依不舍,虽然后来也推出了延续TV版结局的剧场版「香巴拉的征服者」,但FANS期望出续篇的呼声依旧高居不下。欣慰的是,时隔四年后制作方终于愿意回应众FANS的强烈要求了,去年在漫画版第20卷出版之时,骨头社就对外透露第二个系列的「钢之炼金术师」动画版将会在2009年4月发表,并表明第二系列将完全采用漫画剧情。


【STAFF】:
  原作 :荒川弘
  监督 :入江泰浩
  系列构成 :大野木宽
  人物设计 :菅野宏纪
  美术设计 :金平和茂
  美术监督 :佐藤豪志
  背景 :草剃
  色彩设计 :中尾总子
  炼成阵设计 :荒牧伸志
  音乐 :千住明
  音响监督 :三间雅文
  动画制作:BONES
  制作 :钢之炼金术师制作委员会
 

  【CAST】(日/粤):
  爱德华·艾尔利克:朴璐美/袁淑珍
  阿尔冯斯·艾尔利克:钉宫理恵/陈凯婷
  温莉·洛克贝尔:丰口惠(03)高本惠(FA)/郑丽丽
  罗伊·马斯坦古:大川透(03)三木真一郎(FA)/苏强文
  莉莎·霍克爱:折笠富美子/陆惠玲
  亚力士·路易·阿姆斯特朗:内海贤二/张炳强
  玛斯.休兹(马斯·休斯):藤原启治/潘文柏
  简.哈博库(约翰·哈博克):上田佑司
  哈伊姆恩斯.布莱德(海曼斯·普雷达):佐藤美一
  凯恩.富利(肯恩·菲利):柿原彻也 /李致林
  瓦特.法鲁穆恩(瓦特·法尔曼):浜田贤二
  玛利亚·罗斯:名冢佳织
  金.布拉特利(金格·布拉德雷):柴田秀胜
  斯卡:三宅健太/陈欣
  拉斯特(拉斯多):井上喜久子/曾秀清
  古拉德尼(库拉多尼):白鸟哲/陈卓智
  恩比(恩维):高山南/梁伟德
  撒夫·J·金佰利:吉野裕行/梁志达
  艾扎克:山寺宏一
  罗赛:雪野五月
  泉·卡迪斯:津田匠子
  古利德:诹访部顺一(03年)中村悠一(09年)/李锦纶
  姚麟:宫野真守
  兰芳:水树奈奈/张颂欣
  福:堀胜之祐
  张梅:后藤麻衣/何璐怡



 TV动画 钢之炼金术师FA 目录:

  第01话 【钢之炼金术师】「钢の錬金术师」
  第02话 【开端之日】「はじまりの日」
  第03话 【邪教之街】「邪教の街」
  第04话 【炼金术师的苦恼】「錬金术师の苦悩」
  第05话 【悲伤的雨】「哀しみの雨」
  第06话 【希望之路】「希望の道」
  第07话 【隐藏的真相】「隠された真実」
  第08话 【第五研究所】「第五研究所」
  第09话 【被创造的记忆】「创られた想い」
  第10话 【各自的去向】「それぞれの行く先」
  第11话 【拉修巴雷的奇迹】「ラッシュバレーの奇迹」
  第12话 【一即是全 全即是一】「一は全、全は一」
  第13话 【达普利斯的野兽们】「ダブリスの獣たち」
  第14话 【地下潜伏者】「地下にひそむ者たち」
  第15话 【东方的使者】「朹方の使者」
  第16话 【战友的足迹】「戦友の足迹」
  第17话 【冷静而透彻的火焰】「冷彻な焔」
  第18话 【矮小之人傲慢的手掌】「小さな人间の傲慢な掌」
  第19话 【不死之人的死】「死なざる者の死」
  第20话 【墓前的父亲】「墓前の父」
  第21话 【愚者的前进】「愚者の前进」
  第22话 【远去的背影】「远くの背中」
  第23话 【战场上的少女】「戦场の少女」
  第24话 【腹中】「腹の中」
  第25话 【黑暗之门】「闇の扉」
  第26话 【再会】「再会」
  第27话 【夹缝之宴】「狭间の宴」
  第28话 【父亲大人】「おとうさま」
  第29话 【愚者的挣扎】「愚者の足掻き」
  第30话 【伊修巴尔歼灭战】「イシュヴァール歼灭戦」
  第31话 【520元的约定】「520センズの约束」
  第32话 【总统之子】「大総统の息子」
  第33话 【布利古兹的北壁】「ブリッグズの北壁」
  第34话 【冰之女王】「氷の女王」
  第35集 【本国的形态】「この国のかたち」
  第36集 【家族的肖像】「家族の肖像」
  第37集 【起始人造人】「始まりの人造人间(ホムンクルス)」
  第38集 【巴兹库尔的激斗】「バズクールの激闘」
  第39集 【白日之梦】「白昼の梦」
  第40集 【烧瓶中的小人】「フラスコの中の小人(ホムンクルス)」
  第41集 【奈落】「奈落」
  第42集 【反击的征兆】「反撃の兆し」
  第43集 【蚂蚁的反击】「」
  第44集 【完全恢复】「」
  第45集 【约定之日】「」
  第46集 【迫近之影】「」
  第47集 【暗之使者】「」
  第48集 【地道中的誓言】「」
  第49集 【父子之情】「」
  第50集 【中央动乱】「」
  第51集 【不死的军团】「」
  第52集 【众人之力】「」
  第53集 【复仇之炎】「」
  第54集 【烈火的前方】「」
  第55集 【大人们的生存之态】「」
  第56集 【大总统归来】「」
  第57集 【永远的休假】「」
  第58集 【人柱】「」
  第59集 【失去的光】「」
  第60集 【天之瞳、地之扉】「」
  第61集 【噬神者】「」
  第62集 【惨烈的反击】「」
  第63集 【门的另一边】「」
  第64集 【最终回】「」




  ova1:【盲目的炼金术师】「」
  ova2:【单纯的人们】「」
  ova3:【师匠物语】「」





代码


General

Complete name                    : E:\tools\x\Incoming\钢の錬金术师 FULLMETAL ALCHEMIST 第64话 最终回「旅路の涯」(BD 1920x1080 H264 AAC 2ch).mp4

Format                           : MPEG-4

Format profile                   : Base Media

Codec ID                         : isom

File size                        : 775 MiB

Duration                         : 24mn 7s

Overall bit rate                 : 4 491 Kbps

Encoded date                     : UTC 2010-11-26 21:47:50

Tagged date                      : UTC 2010-11-26 21:47:50



Video

Format                           : AVC

Format/Info                      : Advanced Video Codec

Format profile                   : High@L4.1

Format settings, CABAC           : Yes

Format settings, ReFrames        : 4 frames

Codec ID                         : avc1

Duration                         : 24mn 7s

Bit rate mode                    : Variable

Bit rate                         : 4 348 Kbps

Maximum bit rate                 : 25.2 Mbps

Width                            : 1 920 pixels

Height                           : 1 080 pixels

Display aspect ratio             : 16/9

Frame rate mode                  : Variable

Frame rate                       : 23.977 fps

Minimum frame rate               : 23.976 fps

Maximum frame rate               : 95.904 fps

Original frame rate              : 23.976 fps

Resolution                       : 24 bits

Colorimetry                      : 4:2:0

Scan type                        : Progressive

Bits/(Pixel*Frame)               : 0.087

Stream size                      : 750 MiB (97%)

Writing library                  : x264 core 80 r1376 3feaec2

Encoding settings                : cabac=1 / ref=4 / deblock=1:0:0 / analyse=0x3:0x113 / me=hex / subme=7 / psy=1 / psy_rd=1.0:0.0 / mixed_ref=1 / me_range=16 / chroma_me=1 / trellis=1 / 8x8dct=1 / cqm=0 / deadzone=21,11 / fast_pskip=1 / chroma_qp_offset=-2 / threads=12 / sliced_threads=0 / nr=0 / decimate=1 / mbaff=0 / constrained_intra=0 / bframes=3 / b_pyramid=0 / b_adapt=1 / b_bias=0 / direct=1 / wpredb=1 / wpredp=2 / keyint=250 / keyint_min=25 / scenecut=40 / rc_lookahead=40 / rc=crf / mbtree=1 / crf=16.0 / qcomp=0.60 / qpmin=10 / qpmax=51 / qpstep=4 / ip_ratio=1.40 / aq=1:1.00

Encoded date                     : UTC 2010-11-26 20:57:45

Tagged date                      : UTC 2010-11-26 21:47:56



Audio

Format                           : AAC

Format/Info                      : Advanced Audio Codec

Format version                   : Version 4

Format profile                   : LC

Format settings, SBR             : No

Codec ID                         : 40

Duration                         : 24mn 7s

Bit rate mode                    : Variable

Bit rate                         : 141 Kbps

Maximum bit rate                 : 181 Kbps

Channel(s)                       : 2 channels

Channel positions                : L R

Sampling rate                    : 48.0 KHz

Resolution                       : 16 bits

Stream size                      : 24.3 MiB (3%)

Encoded date                     : UTC 2010-11-27 21:43:35

Tagged date                      : UTC 2010-11-26 21:47:56






VOL1封面
IPB Image

VOL2封面
IPB Image


VOL3封面
IPB Image

VOL4封面
IPB Image

VOL5封面
IPB Image

VOL6封面
IPB Image

VOL7封面
IPB Image

VOL8封面
IPB Image

正在读取……

这里是其它用户补充的资源(我也要补充):

bbzyf 2010/05/01 00:46:32 补充
...

该内容尚未提供权利证明,无法提供下载。

knightwind 2010/06/22 10:42:54 补充
Vol.01—Vol.09 (ep01—34)漫游字幕中日双语修订版修正对应Yousei-raws BD的时间轴,增加第四话B

该内容尚未提供权利证明,无法提供下载。
正在加载,请稍等...

点击查看所有572网友评论

 

(?) [公告]留口水、评论相关规则 | [活动]每日签到 轻松领取电驴经验

    小贴士:
  1. 类似“顶”、“沙发”之类没有营养的文字,对勤劳贡献的楼主来说是令人沮丧的反馈信息。
  2. 提问之前请再仔细看一遍楼主的说明,或许是您遗漏了。
  3. 勿催片。请相信驴友们对分享是富有激情的,如果确有更新版本,您一定能搜索到。
  4. 请勿到处挖坑绊人、招贴广告。既占空间让人厌烦,又没人会搭理,于人于己都无利。
  5. 如果您发现自己的评论不见了,请参考以上4条。