v

您的位置:VeryCD音乐其它音乐

音乐资源事务区


Various Artists 群星 -《奔驰S级轿车试音碟》(SURROUND Benz S-Class)[DTS]

  • 状态: 精华资源
  • 摘要:
    音乐类型试音碟
    发行时间2005年
  • 时间: 2009/11/22 18:52:07 发布 | 2009/11/24 00:57:23 更新
  • 分类: 音乐  其它音乐 

hyppt

精华资源: 1

全部资源: 1

相关: 分享到新浪微博   转播到腾讯微博   分享到开心网   分享到人人   分享到QQ空间   订阅本资源RSS更新   美味书签  subtitle
该内容尚未提供权利证明,无法提供下载。
专辑中文名奔驰S级轿车试音碟
专辑英文名SURROUND Benz S-Class
音乐类型试音碟
资源格式DTS
发行时间2005年
地区德国
简介

IPB Image

专辑介绍:

完整DTS版本 奔驰S级轿车试音碟!!!

极品DTS5.1环绕效果,让你尽情享受驾车乐趣,小心超速哦!!

资源来自网络,仅供试听!!

我已经用酒精120刻盘 成功播放 喜欢的朋友不要错过啊!!!

关于如何播放DTS:

首先下载好 MFD MDS文件

安装酒精120 载入MDS文件

QQ影音 foobar2000 v0.9.6.8 测试完美播放!!

也可以刻盘放在支持DTS解码的DVD里播放!

软件下载地址:
foobar 2000 http://www.greendown.cn/soft/7882.html

供源时间 全天候
服务器: free.usenet.nl

不好意思 补上cue

代码

REM DISCID 9D0C1C0C
REM COMMENT "ExactAudioCopy v0.99pb4"
PERFORMER "DTS-CD"
TITLE "奔驰S级轿车试音碟.DTS"
FILE "[SURROUND.Benz.S-Class.奔驰S级轿车试音碟].专辑.(DTS).dts" WAVE
TRACK 01 AUDIO
TITLE "The Sound of Muzak"
PERFORMER "Porcupine Tree"
INDEX 01 00:00:00
TRACK 02 AUDIO
TITLE "Living ih your Eyes"
PERFORMER "Larisa Stow"
INDEX 00 04:59:70
INDEX 01 04:59:71
TRACK 03 AUDIO
TITLE "Andante form Symphony NO.6"
PERFORMER "Tchaikovsky"
INDEX 00 09:29:25
INDEX 01 09:29:26
TRACK 04 AUDIO
TITLE "Satin Doll"
PERFORMER "Les Brown"
INDEX 00 12:22:40
INDEX 01 12:22:41
TRACK 05 AUDIO
TITLE "Fire"
PERFORMER "Studio Voodoo"
INDEX 00 16:52:04
INDEX 01 16:52:05
TRACK 06 AUDIO
TITLE "I Feel Love"
PERFORMER "Blue Man Group"
INDEX 00 21:56:22
INDEX 01 21:56:23
TRACK 07 AUDIO
TITLE "Lamentatio(Remix)"
PERFORMER "Studio Voodoo"
INDEX 00 27:35:19
INDEX 01 27:35:20



专辑曲目

01. Porcupine Tree - The Sound of Muzak
02. Larisa Stow - Living in your Eyes
03. Tchaikovsky - Andante from Symphony No.6
04. Les Brown - Satin Doll
05. Studio Voodoo - Fire
06. Blue Man Group - I Feel Love
07. Studio Voodoo - Lamentatio(Remix)

正在读取……

这里是其它用户补充的资源(我也要补充):

暂无补充资源
正在加载,请稍等...

点击查看所有351网友评论

 

(?) [公告]留口水、评论相关规则 | [活动]每日签到 轻松领取电驴经验

    小贴士:
  1. 类似“顶”、“沙发”之类没有营养的文字,对勤劳贡献的楼主来说是令人沮丧的反馈信息。
  2. 提问之前请再仔细看一遍楼主的说明,或许是您遗漏了。
  3. 勿催片。请相信驴友们对分享是富有激情的,如果确有更新版本,您一定能搜索到。
  4. 请勿到处挖坑绊人、招贴广告。既占空间让人厌烦,又没人会搭理,于人于己都无利。
  5. 如果您发现自己的评论不见了,请参考以上4条。