v

您的位置:VeryCD动漫电视动画

动漫资源事务区


《圣诞快乐 马达加斯加》(Merry Madagascar)更新720p.HDTV[720p.HDTV][DVDRip][HDTV]

  • 状态: 精华资源
  • 摘要:
    发行时间2009年11月17日
    语言英语
  • 时间: 2009/11/21 18:01:34 发布 | 2009/11/26 15:56:29 更新
  • 分类: 动漫  电视动画 

life_is_good

精华资源: 6571

全部资源: 7301

相关: 分享到新浪微博   转播到腾讯微博   分享到开心网   分享到人人   分享到QQ空间   订阅本资源RSS更新   美味书签  subtitle
该内容尚未提供权利证明,无法提供下载。
中文名圣诞快乐 马达加斯加
英文名Merry Madagascar
资源格式HDTV
版本更新720p.HDTV[720p.HDTV][DVDRip]
发行时间2009年11月17日
导演David Soren
地区美国
语言英语
简介

IPB Image

【字幕信息】无
【视频尺寸】XVID (HDTV)624x352 / (DVDRIP)704x384 (Proper DVDRip)624 x 352


【内容介绍】

NBC播出的马达加斯加圣诞特辑,讲述了Alex, Marty, Melman和Gloria一起拯救圣诞节的故事。

In this animated holiday tale with the gang from the “Madagascar” movies, Santa (Carl Reiner) crashes into the island, leaving him with amnesia and putting Christmas in peril. Alex, Marty, Melman and Gloria take the reins to deliver presents and save the holiday, but they’re also hoping to use the sleigh to return home to New York City. Voices include Ben Stiller, Chris Rock, David Schwimmer, Jada Pinkett Smith, Cedric the Entertainer and Andy Richter.

【官方网站】
http://www.nbc.com/upcoming-shows/video/cl...1176317/

代码
   General
      Complete name : merry.madagascar.hdtv-lol.avi
      Format : AVI
      Format/Info : Audio Video Interleave
      File size : 175 MiB
      Duration : 21mn 5s
      Overall bit rate : 1 160 Kbps
      Writing application : VirtualDubMod 1.5.10.2 (build 2540/release)
      Writing library : VirtualDubMod build 2540/release
   Video #0
      ID : 0
      Format : MPEG-4 Visual
      Format profile : AdvancedSimple@L5
      Format settings, BVOP : Yes
      Format settings, QPel : No
      Format settings, GMC : No warppoints
      Format settings, Matrix : Default (H.263)
      Codec ID : XVID
      Codec ID/Hint : XviD
      Duration : 21mn 5s
      Bit rate : 1 022 Kbps
      Width : 624 pixels
      Height : 352 pixels
      Display aspect ratio : 16:9
      Frame rate : 23.976 fps
      Resolution : 24 bits
      Colorimetry : 4:2:0
      Scan type : Progressive
      Bits/(Pixel*Frame) : 0.194
      Stream size : 154 MiB (88%)
      Writing library : XviD 1.2.1 (UTC 2008-12-04)
   Audio #1
      ID : 1
      Format : MPEG Audio
      Format version : Version 1
      Format profile : Layer 3
      Codec ID : 55
      Codec ID/Hint : MP3
      Duration : 21mn 5s
      Bit rate mode : Variable
      Bit rate : 126 Kbps
      Nominal bit rate : 131 Kbps
      Channel(s) : 2 channels
      Sampling rate : 48.0 KHz
      Resolution : 16 bits
      Stream size : 19.0 MiB (11%)
      Alignment : Aligned on interleaves
      Interleave, duration : 24 ms (0.58 video frame)
      Interleave, preload duration : 493 ms
      Writing library : LAME3.98r
      Encoding settings : -m j -V 4 -q 3 -lowpass 17 --abr 131


代码
Merry Madagascar 2009 Moody
Runtime : 28mins11secs
Size : 248mbb
Resolution : 704x384
Framerate : 23.976fps
Bpf : 0.619
Video : Xvid
Video Bitrate : 1095kb/ps
Audio : Mp3  2Ch
Audio Bitrate : 128kb/ps
Source : NTSC DVDR
Language : English
Subtitles : None
Rating : 8.1.(536 Votes)

IPB Image
IPB Image

正在读取……

这里是其它用户补充的资源(我也要补充):

猪无聊 2009/11/29 20:17:04 补充
圣城出的一个Merry.Madagascar.DVDRip.XviD-KAFFEREP 版本的字幕 不知道能对上号不。http://shoo

该内容尚未提供权利证明,无法提供下载。

猪无聊 2009/12/03 21:55:26 补充
根据圣城SCG字幕组翻译的DVDRip.XviD-KAFFEREP版本,按HDTV.XviD-LOL版本大概调整了下.....射手

该内容尚未提供权利证明,无法提供下载。
正在加载,请稍等...

点击查看所有63网友评论

 

(?) [公告]留口水、评论相关规则 | [活动]每日签到 轻松领取电驴经验

    小贴士:
  1. 类似“顶”、“沙发”之类没有营养的文字,对勤劳贡献的楼主来说是令人沮丧的反馈信息。
  2. 提问之前请再仔细看一遍楼主的说明,或许是您遗漏了。
  3. 勿催片。请相信驴友们对分享是富有激情的,如果确有更新版本,您一定能搜索到。
  4. 请勿到处挖坑绊人、招贴广告。既占空间让人厌烦,又没人会搭理,于人于己都无利。
  5. 如果您发现自己的评论不见了,请参考以上4条。