v

您的位置:VeryCD综艺纪录片

综艺资源事务区


《Discovery 美国的开膛手杰克》(Discovery: Jack The Ripper In America)[HDTV]

  • 状态: 精华资源
  • 摘要:
    发行时间2009年
    地区美国
    语言英语
  • 时间: 2009/11/19 09:07:56 发布 | 2009/11/19 20:50:55 更新
  • 分类: 综艺  纪录片 

life_is_good

精华资源: 6571

全部资源: 7301

相关: 分享到新浪微博   转播到腾讯微博   分享到开心网   分享到人人   分享到QQ空间   订阅本资源RSS更新   美味书签  subtitle
该内容尚未提供权利证明,无法提供下载。
中文名Discovery 美国的开膛手杰克
英文名Discovery: Jack The Ripper In America
资源格式HDTV
发行时间2009年
制作发行Discovery
地区美国
语言英语
简介

IPB Image

【频道】:Discovery
【剧名】:Discovery 美国的开膛手杰克 - Discovery: Jack The Ripper In America
【首播】:2009年
【类型】:记录
【片长】:约45分钟
【服务器】: 随机
【分享时间】: 全天
【简介】:

历史上最著名的连环杀手是谁?如果不知道答案,或许是因为没有找对地方。
19世纪90年代,在美国各地发生了一系列的谋杀案。一些难以置信的新证据或许可以解开美国的开膛手杰克的真实面目。

The greatest serial killer in history has never been named. But what if we are looking in the wrong place? In the 1890s a series of murders took place across the United States, and incredible new evidence may reveal the true identity of Jack the Ripper.

http://i47.tinypic.com/jsdrva.jpg

http://i48.tinypic.com/33xbsxj.jpg

http://i47.tinypic.com/2cdd47d.jpg

http://i45.tinypic.com/21nifbp.jpg

代码
Jack.The.Ripper.In.America.HDTV.XviD-OMiCRON

Date : November 16 2009

Size : 28 /



代码
General
Format                           : AVI
Format/Info                      : Audio Video Interleave
File size                        : 349 MiB
Duration                         : 42mn 26s
Overall bit rate                 : 1 150 Kbps
Writing application              : VirtualDubMod 1.5.10.2 (build 2540/release)
Writing library                  : VirtualDubMod build 2540/release

Video
ID                               : 0
Format                           : MPEG-4 Visual
Format profile                   : AdvancedSimple@L5
Format settings, BVOP            : Yes
Format settings, QPel            : No
Format settings, GMC             : No warppoints
Format settings, Matrix          : Default (H.263)
Muxing mode                      : Packed bitstream
Codec ID                         : XVID
Codec ID/Hint                    : XviD
Duration                         : 42mn 26s
Bit rate                         : 1 029 Kbps
Width                            : 624 pixels
Height                           : 352 pixels
Display aspect ratio             : 16:9
Frame rate                       : 29.970 fps
Resolution                       : 24 bits
Colorimetry                      : 4:2:0
Scan type                        : Progressive
Bits/(Pixel*Frame)               : 0.156
Stream size                      : 312 MiB (89%)
Writing library                  : XviD 1.2.1 (UTC 2008-12-04)

Audio
ID                               : 1
Format                           : MPEG Audio
Format version                   : Version 1
Format profile                   : Layer 3
Format settings, Mode            : Joint stereo / MS Stereo
Codec ID                         : 55
Codec ID/Hint                    : MP3
Duration                         : 42mn 26s
Bit rate mode                    : Variable
Bit rate                         : 108 Kbps
Minimum bit rate                 : 32.0 Kbps
Channel(s)                       : 2 channels
Sampling rate                    : 48.0 KHz
Resolution                       : 16 bits
Stream size                      : 32.7 MiB (9%)
Alignment                        : Aligned on interleaves
Interleave, duration             : 24 ms (0.72 video frame)
Interleave, preload duration     : 592 ms
Writing library                  : LAME3.97b
Encoding settings                : -m j -V 5 -q 3 -lowpass 16 --vbr-new -b 32

正在读取……

这里是其它用户补充的资源(我也要补充):

暂无补充资源
正在加载,请稍等...

点击查看所有25网友评论

 

(?) [公告]留口水、评论相关规则 | [活动]每日签到 轻松领取电驴经验

    小贴士:
  1. 类似“顶”、“沙发”之类没有营养的文字,对勤劳贡献的楼主来说是令人沮丧的反馈信息。
  2. 提问之前请再仔细看一遍楼主的说明,或许是您遗漏了。
  3. 勿催片。请相信驴友们对分享是富有激情的,如果确有更新版本,您一定能搜索到。
  4. 请勿到处挖坑绊人、招贴广告。既占空间让人厌烦,又没人会搭理,于人于己都无利。
  5. 如果您发现自己的评论不见了,请参考以上4条。