v

您的位置:VeryCD音乐华语音乐

音乐资源事务区


周传雄 -《Transfer》(Transfer)[FLAC]

  • 状态: 精华资源
  • 摘要:
    发行时间2000年12月
    地区大陆
    语言普通话,台语
  • 时间: 2008/05/21 03:02:18 发布 | 2008/08/17 01:54:47 更新
  • 分类: 音乐  华语音乐 

yegle

精华资源: 2

全部资源: 4

相关: 分享到新浪微博   转播到腾讯微博   分享到开心网   分享到人人   分享到QQ空间   订阅本资源RSS更新   美味书签  subtitle
该内容尚未提供权利证明,无法提供下载。
专辑中文名Transfer
专辑英文名Transfer
歌手周传雄
版本[FLAC]
发行时间2000年12月
地区大陆
语言普通话,台语
简介

IPB Image


关于音质差的问题的解释:原始文件是ape,我用monkey's audio的解码器mac.exe还原成wav再压缩成的flac文件,全过程是无损的,如果发现音质有问题只可能是原始的ape有问题了。不常上后台收信息,有疑问的话请给我邮箱发信:cnyegle at gmail dot com
添加了原始ape文件


专辑介绍:

  那英的『出卖』、陈慧玲的『记事本』、『北极雪』、MAKIYO的『练习』、许志安的『对你的爱依然在』、陶莉萍的『好想再听一遍』、张克帆的『寂寞轰炸』、『那天』、苏永康的『真心话伤人很重』、何润东的『那年我们17岁』、冯德伦的『爱不够』…都是周传雄为人所熟知的作品。

  在整理过这几年的创作好歌之后,周传雄选择了在音乐上能有自己表现空间的多首经典创作,也用全然放松的心情为自己谱写新歌。这些歌曲,不论出现的先后顺序,不论出现的不同姿态,周传雄在音乐成形中,一定,都有他让自己学会转换的过程。也许是浑然天成就跨越过去,也许真的经过几番挣扎。

  从偶像歌手(小刚)→专业制作人→创作歌手。不论,周传雄是以哪一种面貌出现,他在音乐中的能量转换,在这张专辑中,我们将随着他的音乐,一探私密海洋的领域,看见台湾乐坛一线音乐人的表现。

  《六首经典畅销创作 六首全新代表作品》

  『周传雄TRANSFER』可以说是一张精选加新歌的专辑,专辑收录这两年中,周传雄所写过畅销好歌,经过在音乐观点的考量,挑选出六首让周传雄在音乐本质上可以做更多抒发的作品,同时也收录了他的最新创作,完成这一张充满了音乐火花的专辑。

  这几首歌,周传雄交给不同的制作人制作,包括新加坡的李偲菘和香港的Jim Lee,因为当这些歌完成的时候,周传雄就很清楚,最好的东西已经交出去了,他不愿重复自己,因此,让不同的音乐人来发掘他的潜力,是这张专辑中,一项和其他创作艺人很不一样的做法。

  从走红于18岁的青涩年纪开始,周传雄的演唱实力就是他在流行歌坛的一大卖点,他乾净中略带沧桑的特殊嗓音,一直让周传雄的声音在情歌表现上,有着不同于其他歌手的穿透力,在『周传雄TRANSFER』当中,我们又重温了他的演唱实力,这也是他和一般制作人歌手不同之处。虽然明显的可以听到,唱腔和唱法已经和当年的小刚有着极大不同,然而音乐的诚意和表现度一丝不减。他得天独厚的声音和演唱功力,此时此刻听来,依然让人随着音符进入他的音乐世界。

常驻服务器:
no1.eserver.emule.org.cn
ed2k://|server|222.73.207.86|8080
Popgo Anime Server
ed2k://|server|61.129.33.5|3721



CUE Sheet

代码

PERFORMER "周传雄"
TITLE "Transfer"
FILE "CDImage.ape" WAVE
  TRACK 01 AUDIO
    TITLE "忘记"
    PERFORMER "周传雄"
    INDEX 01 00:00:00
  TRACK 02 AUDIO
    TITLE "出卖"
    PERFORMER "周传雄"
    INDEX 00 03:33:65
    INDEX 01 03:37:62
  TRACK 03 AUDIO
    TITLE "寂寞轰炸"
    PERFORMER "周传雄"
    INDEX 00 07:26:47
    INDEX 01 07:30:45
  TRACK 04 AUDIO
    TITLE "游戏爱情"
    PERFORMER "周传雄"
    INDEX 00 12:39:52
    INDEX 01 12:41:50
  TRACK 05 AUDIO
    TITLE "心结"
    PERFORMER "周传雄"
    INDEX 00 16:34:07
    INDEX 01 16:37:05
  TRACK 06 AUDIO
    TITLE "记事本"
    PERFORMER "周传雄"
    INDEX 00 20:53:53
    INDEX 01 20:57:50
  TRACK 07 AUDIO
    TITLE "啤酒泡泡"
    PERFORMER "周传雄"
    INDEX 00 25:16:05
    INDEX 01 25:19:02
  TRACK 08 AUDIO
    TITLE "黄昏"
    PERFORMER "周传雄"
    INDEX 00 30:39:30
    INDEX 01 30:42:27
  TRACK 09 AUDIO
    TITLE "心血来潮"
    PERFORMER "周传雄"
    INDEX 00 36:23:45
    INDEX 01 36:26:42
  TRACK 10 AUDIO
    TITLE "末班车"
    PERFORMER "周传雄"
    INDEX 00 40:57:35
    INDEX 01 41:00:65
  TRACK 11 AUDIO
    TITLE "时间"
    PERFORMER "周传雄"
    INDEX 00 46:11:22
    INDEX 01 46:14:20
  TRACK 12 AUDIO
    TITLE "虎尾溪水慢慢流"
    PERFORMER "周传雄"
    INDEX 00 50:39:12
    INDEX 01 50:43:10


EAC log

代码

EAC extraction logfile from 18. December 2003, 0:13 for CD
周传雄 / Transfer

Used drive  :         DVD-ROM   Adapter: 1  ID: 0
Read mode   : Secure with NO C2, accurate stream, NO disable cache
Combined read/write offset correction : 0
Overread into Lead-In and Lead-Out : No

Used output format : Internal WAV Routines
                     44.100 Hz; 16 Bit; Stereo

Other options      :
    Fill up missing offset samples with silence : Yes
    Delete leading and trailing silent blocks : No
    Installed external ASPI interface


Range status and errors
Selected range
   Filename F:\ape\男歌手\周传雄\CDImage.wav

   峰值电平 100.0 %
   范围品质 100.0 %
   CRC F1BA2E98
   顺利

无错误发生

状态报告结束


IPB Image
IPB Image



专辑曲目

01. 忘记
02. 出卖
03. 寂寞轰炸
04. 游戏爱情
05. 心结
06. 记事本
07. 啤酒泡泡
08. 黄昏
09. 心血来潮
10. 末班车
11. 时间
12. 虎尾溪水慢慢流

正在读取……

这里是其它用户补充的资源(我也要补充):

暂无补充资源
正在加载,请稍等...

点击查看所有126网友评论

 

(?) [公告]留口水、评论相关规则 | [活动]每日签到 轻松领取电驴经验

    小贴士:
  1. 类似“顶”、“沙发”之类没有营养的文字,对勤劳贡献的楼主来说是令人沮丧的反馈信息。
  2. 提问之前请再仔细看一遍楼主的说明,或许是您遗漏了。
  3. 勿催片。请相信驴友们对分享是富有激情的,如果确有更新版本,您一定能搜索到。
  4. 请勿到处挖坑绊人、招贴广告。既占空间让人厌烦,又没人会搭理,于人于己都无利。
  5. 如果您发现自己的评论不见了,请参考以上4条。