v

您的位置:VeryCD综艺纪录片

综艺资源事务区


《魔术师约翰逊》(Magic Johnson Always Showtime)[DVDRip]

  • 状态: 精华资源
  • 摘要:
    发行时间2006年
    地区美国
    语言英语
  • 时间: 2009/11/08 14:44:58 发布 | 2009/11/08 16:28:40 更新
  • 分类: 综艺  纪录片 

sqhy113

精华资源: 328

全部资源: 360

相关: 分享到新浪微博   转播到腾讯微博   分享到开心网   分享到人人   分享到QQ空间   订阅本资源RSS更新   美味书签  subtitle
该内容尚未提供权利证明,无法提供下载。
中文名魔术师约翰逊
英文名Magic Johnson Always Showtime
资源格式DVDRip
发行时间2006年
地区美国
语言英语
简介

IPB Image
  
  See Earvin as he earns the nickname "Magic," leading Michigan's Everett High School to the State Championship. Relive his memorable march to Final Four glory at Michigan State and then watch Magic bring "showtime" and five NBA titles to the LA Lakers. Included are exclusive in-depth interviews with Magic as well as exciting highlights of his high school, college and NBA career. Narrated by Danny Glover ("Lethal Weapon," "Grand Canyon"). Includes 3 of his greatest games in their entirety and his jersey retirement ceremony.

英文名:Earvin Johnson
出 生:1959年8月14日
身 高:2.06米
NBA生涯:1979—1992年,1996年
司 职:后卫

主要荣誉:

①3次获得年度MVP;
②3次获总决赛MVP;
③5次获NBA冠军。

IPB Image

  篮球运动诞生一百多年以来被“巨星”统治了近90年。直到80年代“魔术师”约翰逊用他令人惊叹的球艺彻底改变了篮球的面貌,他将更多的理念,智慧和技巧带到了篮球场上,使得这项运动的观赏性和竞争性在80年代都上升到一个新的高度。而“魔术师”约翰逊前所未有的新打法,更使篮球运动的组织后卫发生了一场影响深远的革命。

IPB Image

  “魔术师”身高2.06米,体重100千克。在1979年以第一轮第一位入选NBA洛杉矶湖人队。在他加入湖人队的第一个赛季,便帮助球队夺得1980年的NBA总冠军。当时在7战4胜的总决赛中,湖人队和费城76人队打成了3比2后,湖人队主力中锋“天钩”贾巴尔把脚严重地扭伤了,结果在第六场比赛中,20岁的约翰逊接替贾巴尔站到了中锋的位置上。那场激战中,年轻的约翰逊独得42分,夺下15个篮板球,还有7次助攻和3次抢断,整个体育馆成了“魔术师”一人的表演舞台,他带领全队击败了76人队,夺得了他第一个NBA总冠军戒指,约翰逊同时也获得了总决赛最有价值球员称号。

  埃文·约翰逊出生于1959年8月14日,他的家乡是密西根州的兰辛市。约翰逊从小就入迷似地苦练篮球,在他上中学的时候,就因为出色的篮球技术被当地报纸的记者称为“魔术师”,以至后人忘了他的真实名字埃文,而“魔术师”代之。

  “魔术师”约翰逊在NBA生涯中得过3次最有价值球员奖(1987,1989,1990年),在1980,1982,1985,1987,1988年5次为洛杉矶湖人队夺得NBA总冠军。1992年他和拉里·伯德两人作为联合队长,带领NBA第一支“梦之队”横扫巴塞罗那,那是他们两人篮球生涯中第一块也是最后一块奥运会金牌。

IPB Image


  约翰逊是NBA历史上最高的组织后卫,他技术极为全面,可以胜任场上任何一个位置,是一个全能的球星。他的推进速度极快,传球的技巧变化多端,常常为队友创出十分舒服的进攻机会。特别是他能像下盲棋一样打篮球,在根本不看队友的情况下也能将球传到处于投篮位置上的队友手中。他是一名将激情和理智,表演和实战完美的结和起来的一名革命性的组织后卫,他不但能为队友制造进攻机会,而且自己也有犀利的得分能力。

IPB Image

  1991年,“魔术师”不幸染上艾滋病,不得不告别NBA。但是他没有在绝症面前屈服,他首先勇敢的面对这一残酷的事实,用自己的真诚和正直换来了人们的理解和尊重,继而从事篮球运动的训练和比赛,并且在1992年先后参加了东西部全明星赛和巴塞罗那奥运会。1996年,在天皇巨星乔丹从棒球场回到NBA之后,“魔术师”约翰逊也在中断了4个赛季之后重返湖人队,为使年轻的湖人队加速成熟尽到了自己的全部力量。1997年3月,经过检查之后,艾滋病毒在他的体内几乎找不到了,他奇迹般地战胜了这一绝症。

  约翰逊的加入,使得NBA出现了一个前所未有的辉煌时期。他的篮球技术和意识,他的成就和刻苦,他的正直和坚韧,成为世界篮坛的一笔重要财富。

IPB Image


KMP截图:

代码
F:\FavoriteVideo\[魔术师约翰逊].Magic.Johnson.Always.Showtime.DVDRip.XviD-sqhy.avi
   General
      Format : AVI
      Format/Info : Audio Video Interleave
      File size : 702 MiB
      Duration : 1h 2mn
      Overall bit rate : 1562 Kbps
      Writing application : VirtualDubMod 1.5.10.2 (build 2540/release)
      Writing library : VirtualDubMod build 2540/release
   Video
      Format : MPEG-4 Visual
      Format profile : Streaming Video@L1
      Format settings, BVOP : Yes
      Format settings, QPel : No
      Format settings, GMC : No warppoints
      Format settings, Matrix : Default
      Codec ID : XVID
      Codec ID/Hint : XviD
      Duration : 1h 2mn
      Bit rate : 1453 Kbps
      Width : 576 pixels
      Height : 416 pixels
      Display aspect ratio : 1.385
      Frame rate : 25.000 fps
      Resolution : 8 bits
      Colorimetry : 4:2:0
      Scan type : Progressive
      Bits/(Pixel*Frame) : 0.243
      Stream size : 653 MiB (93%)
      Writing library : XviD 1.2.0.dev47 (UTC 2006-11-01)
   Audio
      Format : MPEG Audio
      Format version : Version 1
      Format profile : Layer 3
      Codec ID : 55
      Codec ID/Hint : MP3
      Duration : 1h 2mn
      Bit rate mode : Variable
      Bit rate : 98.5 Kbps
      Nominal bit rate : 96.0 Kbps
      Channel(s) : 2 channels
      Sampling rate : 32.0 KHz
      Resolution : 16 bits
      Stream size : 44.4 MiB (6%)
      Alignment : Aligned on interleaves
      Interleave, duration : 36 ms (0.90 video frame)
      Interleave, preload duration : 473 ms
      Writing library : LAME3.90.
      Encoding settings : ABR

正在读取……

这里是其它用户补充的资源(我也要补充):

暂无补充资源
正在加载,请稍等...

点击查看所有31网友评论

 

(?) [公告]留口水、评论相关规则 | [活动]每日签到 轻松领取电驴经验

    小贴士:
  1. 类似“顶”、“沙发”之类没有营养的文字,对勤劳贡献的楼主来说是令人沮丧的反馈信息。
  2. 提问之前请再仔细看一遍楼主的说明,或许是您遗漏了。
  3. 勿催片。请相信驴友们对分享是富有激情的,如果确有更新版本,您一定能搜索到。
  4. 请勿到处挖坑绊人、招贴广告。既占空间让人厌烦,又没人会搭理,于人于己都无利。
  5. 如果您发现自己的评论不见了,请参考以上4条。