v

您的位置:VeryCD综艺体育节目

综艺资源事务区


《NBA街头篮球系列之扣篮》(NBA Street Series: Dunks! )更新 Vol.02[DVDRip]

  • 状态: 精华资源
  • 摘要:
    发行时间2003年
    地区美国
    语言英语
  • 时间: 2009/11/07 11:00:26 发布 | 2009/11/17 09:40:38 更新
  • 分类: 综艺  体育节目 

sqhy113

精华资源: 328

全部资源: 360

相关: 分享到新浪微博   转播到腾讯微博   分享到开心网   分享到人人   分享到QQ空间   订阅本资源RSS更新   美味书签  subtitle
该内容尚未提供权利证明,无法提供下载。
中文名NBA街头篮球系列之扣篮
英文名NBA Street Series: Dunks!
资源格式DVDRip
版本更新 Vol.02
发行时间2003年
地区美国
语言英语
简介

IPB Image
  
  The most devastating, monstrous and posterizing dunks ever witnessed are coming exclusively to 1 DVD loaded with thunderous bonus features including the 1985 slam dunk contest where Jordan took flight from the stripe and the legendary Vince "Vinsanity" Carter dunk from the 2000 Olympic qualifier. Also includes vintage Rucker Park street basketball footage and a sizzling hip hop sound track featuring some of the top artists in the genre. Hosted by world-famous MTV VJ and platinum recording artist DJ Clue, NBA Street Series: Dunks! "Crushes the Competition".

  那些你所见过的最具破坏性的、最震撼的、被永远铭记的扣篮都被记录在这一张DVD碟中,另外附带其他雷霆万钧的扣篮影像,包括乔丹飞跃罚球线的1985年扣篮大赛,和2000年奥运会预选赛上文斯卡特的疯狂一扣。另外还包括经典的洛克公园街头篮球镜头和顶级嘻哈歌者们的作品。由闻名世界的MTV主持人和白金唱片级DJ解说。NBA街球系列:灌篮篇!“碾碎你的对手”。

  谁更技高一筹?街球高手还是职业球员?在这里找到曾经被镜头记录下来的最精彩的投篮、扣篮和掼篮精粹。配以节奏感强烈的HIP HOP,掼篮高手一集将最炙手可热的NBA全明星一一呈现在你的眼前。

  凯文.加内特腾空而出,奥尼尔震撼出击,勒布朗更是技惊四座。这是目前所收录的最精彩的掼篮集锦……看这些反身掼篮、战斧式掼篮、风车掼篮、360度转身掼篮,当然,还有悄无声息的插入。

  赛场中的球员可以证明,但是掼篮高手一集再次证明众所周知的事实:最棒的球员尽在NBA。

IPB Image
  Get ready to experience the most jaw-dropping dunks in the NBA. Hosted by DJ Clue, Dunks! Vol. 2 features the best athletes of the game doing their thing like nobody else can. Watch Kobe Bryant take it to the hoop, LeBron James rock the rim, Kenyon Martin terminate and more. It's the second installment of the most in-your-face dunks ever assembled - jam after jam from up and coming NBA stars, established kings, and international high flyers.

  请做好心理准备,你将欣赏到的是NBA史上最令人瞠目结舌的灌篮动作!本片由获得白金唱片销量的DJ CLUE主持,专门介绍那些
拥有过人球技的最佳篮球运动员。看看科比·布莱恩特如何上篮,看看勒布朗·詹姆斯如何摇撼篮圈,看看肯扬·马丁的终极
一击……还有更多精彩内容等着你。这是目前结集的最具攻击性灌篮大全的第二部,其中囊括不断涌现的NBA新秀,业已称霸的
篮球巨星,以及举世公认的超级飞人们。NBA篮球集锦绝对货真价实!

KMP截图:

IPB Image

IPB Image

IPB Image

IPB Image

IPB Image


代码

F:\FavoriteVideo\[NBA街头篮球系列之扣篮].NBA.Street.Series.Dunks.Vol.01.DVDRip.XviD-sqhy.avi
   General
      Format : AVI
      Format/Info : Audio Video Interleave
      File size : 694 MiB
      Duration : 1h 22mn
      Overall bit rate : 1183 Kbps
      Writing application : Nandub v1.0rc2
      Writing library : Nandub build 1852/release
   Video
      Format : MPEG-4 Visual
      Format profile : Simple@L3
      Format settings, BVOP : Yes
      Format settings, QPel : No
      Format settings, GMC : No warppoints
      Format settings, Matrix : Default
      Codec ID : XVID
      Codec ID/Hint : XviD
      Duration : 1h 22mn
      Bit rate : 1034 Kbps
      Width : 480 pixels
      Height : 352 pixels
      Display aspect ratio : 4/3
      Frame rate : 29.970 fps
      Resolution : 8 bits
      Colorimetry : 4:2:0
      Scan type : Progressive
      Bits/(Pixel*Frame) : 0.204
      Stream size : 607 MiB (87%)
      Writing library : XviD 0.0.09 (UTC 2003-03-25)
   Audio
      Format : MPEG Audio
      Format version : Version 1
      Format profile : Layer 3
      Codec ID : 55
      Codec ID/Hint : MP3
      Duration : 1h 22mn
      Bit rate mode : Variable
      Bit rate : 135 Kbps
      Channel(s) : 2 channels
      Sampling rate : 48.0 KHz
      Resolution : 16 bits
      Stream size : 79.1 MiB (11%)
      Alignment : Aligned on interleaves
      Interleave, duration : 24 ms (0.72 video frame)
      Interleave, preload duration : 169 ms
      Writing library : LAME3.93
      Encoding settings : VBR (mtrh)

正在读取……

这里是其它用户补充的资源(我也要补充):

暂无补充资源
正在加载,请稍等...

点击查看所有42网友评论

 

(?) [公告]留口水、评论相关规则 | [活动]每日签到 轻松领取电驴经验

    小贴士:
  1. 类似“顶”、“沙发”之类没有营养的文字,对勤劳贡献的楼主来说是令人沮丧的反馈信息。
  2. 提问之前请再仔细看一遍楼主的说明,或许是您遗漏了。
  3. 勿催片。请相信驴友们对分享是富有激情的,如果确有更新版本,您一定能搜索到。
  4. 请勿到处挖坑绊人、招贴广告。既占空间让人厌烦,又没人会搭理,于人于己都无利。
  5. 如果您发现自己的评论不见了,请参考以上4条。