v

您的位置:VeryCD动漫电视动画

动漫资源事务区


《东京地震8.0》(Tokyo Magnitude 8.0)[R2JRAW][繁体外挂字幕][更新OP+ED话][BDRip][1080P][MP4]

  • 状态: 精华资源
  • 摘要:
    发行时间2009年7月
    语言日语
  • 时间: 2009/11/04 11:06:31 发布 | 2009/12/13 05:13:27 更新
  • 分类: 动漫  电视动画 

mexicanredknee

精华资源: 7

全部资源: 8

相关: 分享到新浪微博   转播到腾讯微博   分享到开心网   分享到人人   分享到QQ空间   订阅本资源RSS更新   美味书签  subtitle
该内容尚未提供权利证明,无法提供下载。
中文名东京地震8.0
英文名Tokyo Magnitude 8.0
别名东京マグニチュード8.0
资源格式MP4
版本[R2JRAW][繁体外挂字幕][更新OP+ED话][BDRip][1080P]
发行时间2009年7月
地区日本
语言日语
简介

IPB Image

【日文名】 东京マグニチュード8.0
【英文名】 Tokyo_Magnitude_8.0
【中文名】 东京地震8.0
【字幕信息】繁体外挂(来源 射手网)
【视频尺寸】x264-1080P

此版为个人发布,根据BD发售时间不定期更新,在线时间基本为晚11点至早7点

【内容介绍】

故事发生於即将进入暑假的台场。中学1年级生-未来,一天被迫跟弟弟悠贵一同去看机械人展。正值於反叛期的未来因着感到无聊不已而开始把玩自己的手机。「毎日毎日都是一成不变……这样的事物,这样的世界,还不如彻底崩坏掉吧」就在她这样想的一瞬间,地面突然开始激烈的揺荡。 向东京来袭了,高达8级的海沟型大地震。 海滨大桥倒塌,东京塔京倒下。就在一瞬间东京彻底的改变了。未来捉着悠贵的手,向跟台场相遇的自行车骑使人-真理那儿,借助他的能力而向自己於世田谷的家出发。途中遇到种种困难,由于真理的妈妈和女儿需要照顾,被迫与未来和悠贵分开,最后当未来和悠贵回到家时,悠贵对未来说:“我已经死了。”

【STAFF】

监督:橘正纪
系列构成:高桥ナツコ
人物设定:野崎あつこ
场景设计:植田均
3D监督:井野元英二
色彩设计:加藤里惠
美术监督:中岛美佳
音响监督:たなかかずや
音乐:大谷幸
动画制作:BONES、キネマシトラス

【CAST】

小野泽未来:花村怜美
小野泽悠贵:小林由美子
日下部真理:甲斐田裕子
小野沢诚司:中博史
小野沢雅美:井上喜久子
マユ: 喜多村英梨
ユカ: 丰崎爱生
メグ: 高平成美
便利店售货员(第2话):中原麻衣
新闻主持: 泷川·克里斯汀(日文名:泷川雅美)

【人物介绍】

小野泽未来(CV:花村怜美)
中学1年生(13歳)。正处於反叛期中。与整天忙于工作的父母相处得并不太融洽。个性认生、手机片刻不离手。

IPB Image

小野泽悠贵(CV:小林由美子)
小学3年生(8歳)未来的弟弟。是个能够体谅对方、开朗聪明的男孩子。原本是和姐姐去台场玩,却遭遇了地震。最后因头部受到倒塌的东京铁塔碎块的猛烈撞击导致死亡。

IPB Image

日下部真理(CV:甲斐田裕子)
32歳的自行车骑手。一个人(还有母亲)抚养5歳的女儿。拥有被困仍毫不在意的性格、以地震为开端与未来和悠贵一起行动。

IPB Image

【官方网站】

http://www.tokyo-m8.com/

代码
General
Complete name                    : [OWA Raws] Tokyo Magnitude 8.​0 - 01 (BD 1920x1080 h264 AAC).mp4
Format                           : MPEG-4
Format profile                   : Base Media
Codec ID                         : isom
File size                        : 495 MiB
Duration                         : 22mn 36s
Overall bit rate                 : 3 059 Kbps
Encoded date                     : UTC 2009-11-02 02:59:59
Tagged date                      : UTC 2009-11-02 02:59:59

Video
ID                               : 1
Format                           : AVC
Format/Info                      : Advanced Video Codec
Format profile                   : High@L4.1
Format settings, CABAC           : Yes
Format settings, ReFrames        : 4 frames
Codec ID                         : avc1
Codec ID/Info                    : Advanced Video Coding
Duration                         : 22mn 36s
Bit rate mode                    : Variable
Bit rate                         : 2 777 Kbps
Maximum bit rate                 : 38.7 Mbps
Width                            : 1 920 pixels
Height                           : 1 080 pixels
Display aspect ratio             : 16:9
Frame rate mode                  : Constant
Frame rate                       : 23.976 fps
Resolution                       : 24 bits
Colorimetry                      : 4:2:0
Scan type                        : Progressive
Bits/(Pixel*Frame)               : 0.056
Stream size                      : 449 MiB (91%)
Title                            : OWA Raws
Writing library                  : x264 core 78 r1310_DANGEROUS
Language                         : Japanese
Encoded date                     : UTC 2009-10-31 22:22:13
Tagged date                      : UTC 2009-11-02 03:00:15
colour_primaries                 : BT.709-5, BT.1361, IEC 61966-2-4, SMPTE RP177
transfer_characteristics         : BT.709-5, BT.1361
matrix_coefficients              : BT.709-5, BT.1361, IEC 61966-2-4 709, SMPTE RP177

Audio
ID                               : 2
Format                           : AAC
Format/Info                      : Advanced Audio Codec
Format version                   : Version 4
Format profile                   : LC
Format settings, SBR             : No
Codec ID                         : 67
Duration                         : 22mn 36s
Bit rate mode                    : Variable
Bit rate                         : 279 Kbps
Maximum bit rate                 : 366 Kbps
Channel(s)                       : 2 channels
Channel positions                : L R
Sampling rate                    : 48.0 KHz
Resolution                       : 16 bits
Stream size                      : 45.0 MiB (9%)
Title                            : AAC
Language                         : Japanese
Encoded date                     : UTC 2009-11-02 03:00:13
Tagged date                      : UTC 2009-11-02 03:00:15


IPB Image
IPB Image

正在读取……

这里是其它用户补充的资源(我也要补充):

暂无补充资源
正在加载,请稍等...

点击查看所有46网友评论

 

(?) [公告]留口水、评论相关规则 | [活动]每日签到 轻松领取电驴经验

    小贴士:
  1. 类似“顶”、“沙发”之类没有营养的文字,对勤劳贡献的楼主来说是令人沮丧的反馈信息。
  2. 提问之前请再仔细看一遍楼主的说明,或许是您遗漏了。
  3. 勿催片。请相信驴友们对分享是富有激情的,如果确有更新版本,您一定能搜索到。
  4. 请勿到处挖坑绊人、招贴广告。既占空间让人厌烦,又没人会搭理,于人于己都无利。
  5. 如果您发现自己的评论不见了,请参考以上4条。