v

您的位置:VeryCD动漫OVA

动漫资源事务区


《王立国教骑士团 OVA》(Hellsing OVA)[RP工作室字幕][Ep06][BDRip]

  • 状态: 精华资源
  • 摘要:
    发行时间2009年
    语言日语
  • 时间: 2009/10/23 08:55:18 发布 | 2009/10/23 09:08:33 更新
  • 分类: 动漫  OVA 

MB3

精华资源: 4

全部资源: 4

相关: 分享到新浪微博   转播到腾讯微博   分享到开心网   分享到人人   分享到QQ空间   订阅本资源RSS更新   美味书签  subtitle
该内容尚未提供权利证明,无法提供下载。
中文名王立国教骑士团 OVA
英文名Hellsing OVA
别名地狱之歌 OVA
资源格式BDRip
版本[RP工作室字幕][Ep06]
发行时间2009年
地区日本
语言日语
简介

引用
RF
文件名: [RPstudio][HELLSING_OVA][Ep06][BDrip][1920X1080][x264_AC3].mkv
下载地址: http://www.rayfile.com/files/61e3988f-c8c5...21b798a/

JShare:2009.11新增
http://www.jsharer.com/blog/317231.htm


IPB Image


【中文名称】王家国教骑士团 OVA
【英文名称】Hellsing OVA
【别名】地狱之歌 OVA
【资源类型】BDrip
【版本】RP工作室字幕

简介:

【内容介绍】
不为世人所知的吸血鬼仍然生存与世界上,而在英国,存在着一个对付吸血鬼的秘密组织,王家国教骑士团——Hellsing组织。


【CAST】
アーカード        中田譲治
セラス・ヴィクトリア    折笠富美子
インテグラル・ファルブルケ・ウィンゲーツ・ヘルシング 榊原良子
ウォルター・C・ドルネーズ 清川元梦

少佐        飞田展男
ヘルシング卿     大塚周夫
ルーク・ヴァレンタイン 子安武人
ヤン・ヴァレンタイン  高木 渉
アイランズ卿     堀 胜之祐
ペンウッド卿     広瀬正志
円卓会议のミナサン  斧 アツシ, 桐井大介, 饭岛 肇, 白熊寛嗣, 上田阳司



引用


此版本为RP工作室友情打造,献给广大同好以及我们最爱的昆仑,转载请复制一下文字.
---------------------------------
【Hellsing OVA】 by RP工作室(www.ikunlun.net)
1.本作品仅供学习交流之用,严禁用于商业用途。
2.严禁转载至贪婪大陆以及森蓝旗下任何网站。
3.遵守以上两点即可随意转载,欢迎与广大同好分享。
----------------------------------


引用

感谢对我们RP工作室的支持.
我个人的HELLSING OVA 的DVDrip上传量超过130G(我只是小水管),相信在组内的分流以及各位同好上传者的帮助下,更多的人可以分享到HELLSING.感谢驴子上做源的各位同好.
RP组全体拜谢,我们以后会推出更多更好的作品,而不仅仅局限在HELLSING OVA上,希望多多支持。


以下不是公告,这是FQA的变种

关于本BDrip版本:
Q:为什么是1G,难道这不是高清么,怎么那么小?
A:高清是什么?720p?1080p?码率多少?
这是第一次弄BDrip,这个问题烦了我很久,因为这个貌似是没有标准答案的,但是我必须要在片子的质量跟大小之间做出平衡。本人用的只是普通的17寸屏,根据某人的话就是“给你神眼你也看不出BDISO跟BDrip的区别”所以弄出来以后还要传到FULL HD的人手上征询他们的意见。结果我还是混乱了,某23寸大姐头说,很好,比DVDrip好多了。某22寸交际花说,我觉得跟DVDrip的版本没什么区别.我自己也在室友几台电脑上试了试(当然不是FULL HD),真的没感觉到有什么区别.对比其他大组的BDrip,但是片子不一样,无法比较。于是,还是随着自己的感觉去做吧。
于是,结果我还是敲定了这个大小(1G)。虽然大家的硬盘大了,但是网络可没有提速,我们这些业余做源的更是可以用艰苦来形容。为了方便传播,我把这次BDrip大小定在1G,而且是封装了字幕跟字体。

p.s.要扔臭鸡蛋烂番茄就往我这里扔就可以了,我这闹饥荒呢。

关于播放:
Q:为什么我看不到字幕...为什么我看不到特效...为什么我片子都看不到...为什么....为什么!!!
A:
( 一 )播放效果因每个人的设置不同而产生差异(简单说就是因人而异),别乱扔臭鸡蛋。
( 二 )看不到效果可以尝试下面几个方法:1.一般用暴风就能放了 2.终极解码,完美解码下的MPC模式. 3.不喜爱暴风的我推荐K-LITE CODEC 4.直接使用绿色版的potplayer
我个人由于系统问题,终极解码不能正常工作,所以我是K-lite配绿软版potplayer,默认设置应该就OK了.
( 三 )这样都看不到,只能说你RP了...


关于QQmail:
邮件发去whitemapleleaf@qq.com伸手要。
( 一 )和谐的第一条,和谐掉了。
( 二 )尽量使用QQ邮箱伸手拿链接比较好。
( 三 )注意文件名过长要重命名,否则系统会把名字变成省略号。
( 四 )假如下到的文件看上去出现任何播放问题,先检查你的播放器是否有问题。没有问题的话请重下,因为QQ中转站有时候下载的文件就是残缺的,并不是我们的文件有问题。
( 五 )伸手拿链接的时候记得注明你要什么,第几集之类的。
( 六 )下完别忘记分享做源。

Q:1~5的BDrip呢?
A:网上没找到1~5的片源,所以这个不要问我。期望有神人能放源吧。



引用

今天我应该在这个服务器,连上的有福了,1M/S上传
只限今天,2009.10.23,后面我都用小水管。

eD2K 网络
状态: 已连接
IP:端口: 202.116.95.43:7557
ID: 16423438
LowID

eD2K 服务器
名字: eserver.no1
描述: eMule
IP:端口: no2.eserver.emule.org.cn:8080
版本: 17.15
用户数: 400,664
文件: 5,967,960
连接: Obfuscated

IPB Image



引用

General
Complete name : G:\hellsing raw\[RPstudio][HELLSING_OVA][Ep06][BDrip][1920X1080][x264_AC3].mkv
Format : Matroska
File size : 1 015 MiB
Duration : 42mn 14s
Overall bit rate : 3 358 Kbps

Video
ID : 1
Format : AVC
Format/Info : Advanced Video Codec
Format profile : High@L4.0
Format settings, CABAC : Yes
Format settings, ReFrames : 4 frames
Muxing mode : Container profile=Unknown@4.0
Codec ID : V_MPEG4/ISO/AVC
Duration : 42mn 12s
Bit rate : 2 843 Kbps
Nominal bit rate : 2 862 Kbps
Width : 1 920 pixels
Height : 1 072 pixels
Display aspect ratio : 16/9
Frame rate : 23.976 fps
Resolution : 24 bits
Colorimetry : 4:2:0
Scan type : Progressive
Bits/(Pixel*Frame) : 0.058
Stream size : 858 MiB (85%)
Audio
ID : 2
Format : AC-3
Format/Info : Audio Coding 3
Codec ID : A_AC3
Duration : 42mn 14s
Bit rate mode : Constant
Bit rate : 448 Kbps
Channel(s) : 6 channels
Channel positions : Front: L C R, Surround: L R, LFE
Sampling rate : 48.0 KHz
Stream size : 135 MiB (13%)
Language : Japanese

Text
ID : 3
Format : ASS
Codec ID : S_TEXT/ASS
Codec ID/Info : Advanced Sub Station Alpha
Title : CHS
Language : Chinese

正在读取……

这里是其它用户补充的资源(我也要补充):

暂无补充资源
正在加载,请稍等...

点击查看所有73网友评论

 

(?) [公告]留口水、评论相关规则 | [活动]每日签到 轻松领取电驴经验

    小贴士:
  1. 类似“顶”、“沙发”之类没有营养的文字,对勤劳贡献的楼主来说是令人沮丧的反馈信息。
  2. 提问之前请再仔细看一遍楼主的说明,或许是您遗漏了。
  3. 勿催片。请相信驴友们对分享是富有激情的,如果确有更新版本,您一定能搜索到。
  4. 请勿到处挖坑绊人、招贴广告。既占空间让人厌烦,又没人会搭理,于人于己都无利。
  5. 如果您发现自己的评论不见了,请参考以上4条。