v

您的位置:VeryCD音乐日韩音乐

音乐资源事务区


KOKIA -《Remember Me》专辑[APE]

  • 状态: 精华资源
  • 摘要:
    发行时间2003年11月12日
    地区日本
    语言日语
  • 时间: 2008/05/19 12:16:36 发布 | 2008/05/19 12:32:20 更新
  • 分类: 音乐  日韩音乐 

pennyliu123

精华资源: 553

全部资源: 563

相关: 分享到新浪微博   转播到腾讯微博   分享到开心网   分享到人人   分享到QQ空间   订阅本资源RSS更新   美味书签  subtitle
该内容尚未提供权利证明,无法提供下载。
专辑中文名Remember Me
歌手KOKIA
资源格式APE
版本专辑
发行时间2003年11月12日
地区日本
语言日语
简介

IPB Image


专辑介绍:

KOKIA在2003年推出的专辑,收录了她为911事件写下的《Remember the Kiss》,还有生日时创作的《Happy Birthday to me》,专辑中的《私の太陽》、《 かわらないこと ~since1976~》和《The Power of Smile》也都是她很有代表性的作品。


歌手介绍:

本名吉田亚纪子的KOKIA,两岁开始玩小提琴与钢琴,从小就是音乐奇才,高中与大学专攻声乐,1998年步入乐坛之后,她的歌声让"月之海"的河村隆一惊为天人,将她收在门下担任RKS计画中的女主唱,成为河村隆一的得意门生。KOKIA出过七张专辑,两年前梁咏琪所拍摄的化妆品广告,曾以她的歌曲为背景音乐,同时郑秀文也翻唱过她的歌曲《ありがとう(感谢)》,从此让大家见识到了KOKIA的气质美声。

KOKIA的歌声有着浓浓的爱尔兰风味,所以有人说她是日本的恩雅,也有人说她是中岛美雪的接班人,其实,KOKIA就是KOKIA,她的歌声多了一点入世的生命力,她的音乐则多了一点游戏人间的味道。从爱尔兰的居尔特音乐、古典、世界、民谣音乐、歌剧,KOKIA总是能巧妙的将其融合,她的音乐总难定位,有时像个吟游女诗人,声声慢的唱出深远的意境;有时像个音乐小顽童,以一颗颗充满生命能量的跳动音符,挑逗听者的感官;有时又像个神秘主义大师,以迷离的乐章作为心灵治疗的处方。

(本资源来自share,感谢原发布者,歌手介绍搜索自网络)

代码

REM GENRE "J ポップ"
REM DATE 2003
REM DISCID E911230F
REM COMMENT "ExactAudioCopy v0.95b4"
CATALOG 4988002453962
PERFORMER "KOKIA"
TITLE "Remember me"
FILE "KOKIA - Remember me.ape" WAVE
  TRACK 01 AUDIO
    TITLE "Prologue 'Remember me'"
    PERFORMER "KOKIA"
    ISRC JPVI00330730
    INDEX 01 00:00:00
  TRACK 02 AUDIO
    TITLE "私の太陽"
    PERFORMER "KOKIA"
    ISRC JPVI00330740
    INDEX 00 01:17:73
    INDEX 01 01:20:15
  TRACK 03 AUDIO
    TITLE "Different way"
    PERFORMER "KOKIA"
    ISRC JPVI00330750
    INDEX 00 06:38:26
    INDEX 01 06:39:00
  TRACK 04 AUDIO
    TITLE "かわらないこと ~since1976~"
    PERFORMER "KOKIA"
    ISRC JPVI00307220
    INDEX 00 11:34:08
    INDEX 01 11:35:67
  TRACK 05 AUDIO
    TITLE "Happy birthday to me"
    PERFORMER "KOKIA"
    ISRC JPVI00323950
    INDEX 00 16:30:21
    INDEX 01 16:31:25
  TRACK 06 AUDIO
    TITLE "with music"
    PERFORMER "KOKIA"
    ISRC JPVI00330760
    INDEX 00 22:27:26
    INDEX 01 22:30:00
  TRACK 07 AUDIO
    TITLE "安心の中"
    PERFORMER "KOKIA"
    ISRC JPVI00330790
    INDEX 00 26:22:41
    INDEX 01 26:23:27
  TRACK 08 AUDIO
    TITLE "そら"
    PERFORMER "KOKIA"
    ISRC JPVI00330780
    INDEX 00 32:32:73
    INDEX 01 32:34:07
  TRACK 09 AUDIO
    TITLE "The Power of Smile"
    PERFORMER "KOKIA"
    ISRC JPVI00325240
    INDEX 00 38:15:73
    INDEX 01 38:16:10
  TRACK 10 AUDIO
    TITLE "Clap your hands!"
    PERFORMER "KOKIA"
    ISRC JPVI00330770
    INDEX 01 42:22:50
  TRACK 11 AUDIO
    TITLE "I believe ~海の底から~"
    PERFORMER "KOKIA"
    ISRC JPVI00330820
    INDEX 00 47:43:51
    INDEX 01 47:47:12
  TRACK 12 AUDIO
    TITLE "大事なものは目蓋の裏"
    PERFORMER "KOKIA"
    ISRC JPVI00330800
    INDEX 00 53:53:53
    INDEX 01 53:55:07
  TRACK 13 AUDIO
    TITLE "?"
    PERFORMER "KOKIA"
    ISRC JPVI00330810
    INDEX 00 59:03:33
    INDEX 01 59:04:32
  TRACK 14 AUDIO
    TITLE "sigh"
    PERFORMER "KOKIA"
    ISRC JPVI00323960
    INDEX 00 63:22:48
    INDEX 01 63:23:30
  TRACK 15 AUDIO
    TITLE "Remember the kiss (duet“KOKIA&Piano”)"
    PERFORMER "KOKIA"
    ISRC JPVI00323940
    INDEX 00 68:28:73
    INDEX 01 68:34:47



专辑曲目

1. Prologue"Remember me"
2. 私の太陽
3. Different way
4. かわらないこと - since1976 -
5. Happy birthday to me
6. with music
7. 安心の中
8. そら
9. The Power of Smile
10. Clap your hands!
11. I believe
12. 大事なものは目蓋の裏
13. ?
14. sigh
15. Remember the kiss(duet"KOKIA&Piano")

正在读取……

这里是其它用户补充的资源(我也要补充):

暂无补充资源
正在加载,请稍等...

点击查看所有52网友评论

 

(?) [公告]留口水、评论相关规则 | [活动]每日签到 轻松领取电驴经验

    小贴士:
  1. 类似“顶”、“沙发”之类没有营养的文字,对勤劳贡献的楼主来说是令人沮丧的反馈信息。
  2. 提问之前请再仔细看一遍楼主的说明,或许是您遗漏了。
  3. 勿催片。请相信驴友们对分享是富有激情的,如果确有更新版本,您一定能搜索到。
  4. 请勿到处挖坑绊人、招贴广告。既占空间让人厌烦,又没人会搭理,于人于己都无利。
  5. 如果您发现自己的评论不见了,请参考以上4条。