v

您的位置:VeryCD动漫电视动画

动漫资源事务区


《好想告诉你》(Kimi ni Todoke)[H&C字幕组][更新25话RMVB/mp4][HDTV]

  • 状态: 精华资源
  • 摘要:
    发行时间2009年10月06日
    语言日语
  • 时间: 2009/10/10 00:09:24 发布 | 2010/04/05 11:02:27 更新
  • 分类: 动漫  电视动画 

vivianna

精华资源: 20

全部资源: 20

相关: 分享到新浪微博   转播到腾讯微博   分享到开心网   分享到人人   分享到QQ空间   订阅本资源RSS更新   美味书签  subtitle
该内容尚未提供权利证明,无法提供下载。
中文名好想告诉你
英文名Kimi ni Todoke
别名君に届け
资源格式HDTV
版本[H&C字幕组][更新25话RMVB/mp4]
发行时间2009年10月06日
地区日本
语言日语
简介

IPB Image

【原名】君に届け
【中文名】好想告诉你
【英文名】Kimi ni Todoke
【字幕】简体内嵌
【格式】RMVB+MP4+MKV

此剧最大特点为 每话都换作画监督 (-_-)y--~~

【在线预览】



【STORY】

因为外表阴暗被人以为有灵力的黑沼爽子被大家所害怕着,同时还有个贞子的绰号。
习惯了周围人躲避的爽子憧憬着深受大家喜欢的风早翔太。想要改变自己的爽子在风早、矢野绫音、吉田千鹤、真田龙这几个同班同学的交往中一点点地打破自己的外壳。
纯洁的爽子在友情、恋爱之情、对手、朋友和失恋等等初体验的过程中,认真地描绘着校园青春故事。

【STAFF】

原作:椎名轻穗
导演:镝木宏
系列构成:金春智子
人物设计:柴田由香
道具设定:佐藤仁实
美术监督:竹田悠介
美术设定:成田伟饱,加藤朋则
3DCGI:佐藤敦
特殊摄影:村上正博
摄影监督:田中宏侍
编辑:今井大介
音响监督:山田知明
助导演:长沼范裕
音乐:S.E.N.S.Project
动画制作:Production I.G

【CAST】

黒沼爽子:能登麻美子
风早翔太:浪川大辅
胡桃沢梅:平野绫
真田龙:中村悠一
矢野绫音:沢城美雪
吉田千鹤:三瓶由布子

【人物介绍】

黑沼爽子 通称:贞子
外表阴暗,被人恐惧而被叫做“贞子”,但实际性格非常开朗,而且容易被细小的事情感动。
座右铭是“日行一善”。

风早翔太 通称:风早
拥有直率的性格和爽朗的笑容,让所有人都很喜欢的班级人气王。
对入学典礼上邂逅的爽子非常在意。
座右铭是“真诚到底”。

吉田千鹤 通称:千子
有情有义又热血的大姐大。
深爱着拉面。和龙是青梅竹马。
座右铭是“想吃就吃”。

矢野绫音 通称:矢野亲
冷静沉着的逗哏角色。恋爱方面好像很有经验。
兴趣是探寻美丽。
座右铭是“眉目清秀”。

真田龙 通称:龙
家里是拉面店。和风早初中时就在一起。
棒球部人员。总之很有主见。

【官方网站】

http://www.ntv.co.jp/kiminitodoke/

【14话QQ下载 需登陆可见】

http://hcplanet.uueasy.com/read.php?tid=85...ply=1&#a

【视频截图】

http://i49.tinypic.com/2z550zk.jpg
http://i49.tinypic.com/eh1150.jpg

代码

      General
      Complete name : [好想告诉你][HC][Kimi ni Todoke][01][864×480][GB].rmvb
      Format : RealMedia
      File size : 99.7 MiB
      Duration : 22mn 44s
      Overall bit rate : 606 Kbps
      Performer : H&C字幕组
      Copyright : H&C字幕组
   Video #1
      ID : 1
      Format : RealVideo 4
      Codec ID : RV40
      Codec ID/Info : Based on AVC (H.264), Real Player 9
      Duration : 22mn 44s
      Bit rate : 510 Kbps
      Width : 864 pixels
      Height : 480 pixels
      Display aspect ratio : 16/9
      Frame rate : 23.000 fps
      Resolution : 12 bits
      Bits/(Pixel*Frame) : 0.053
      Stream size : 83.0 MiB (83%)
   Audio #0
      ID : 0
      Format : AAC
      Format/Info : Advanced Audio Codec
      Codec ID : racp
      Codec ID/Info : Real Player 10
      Duration : 22mn 44s
      Bit rate : 96.0 Kbps
      Channel(s) : 2 channels
      Sampling rate : 44.1 KHz
      Resolution : 16 bits
      Stream size : 15.6 MiB (16%)

正在读取……

这里是其它用户补充的资源(我也要补充):

暂无补充资源
正在加载,请稍等...

点击查看所有259网友评论

 

(?) [公告]留口水、评论相关规则 | [活动]每日签到 轻松领取电驴经验

    小贴士:
  1. 类似“顶”、“沙发”之类没有营养的文字,对勤劳贡献的楼主来说是令人沮丧的反馈信息。
  2. 提问之前请再仔细看一遍楼主的说明,或许是您遗漏了。
  3. 勿催片。请相信驴友们对分享是富有激情的,如果确有更新版本,您一定能搜索到。
  4. 请勿到处挖坑绊人、招贴广告。既占空间让人厌烦,又没人会搭理,于人于己都无利。
  5. 如果您发现自己的评论不见了,请参考以上4条。