v

您的位置:VeryCD动漫剧场动画

动漫资源事务区


《死神剧场版3:呼唤君之名》(Bleach The Movie 3: Fade To Black)[1280x720][DVDRip]

  • 状态: 精华资源
  • 摘要:
    发行时间2009年
    语言日语
  • 时间: 2009/10/08 18:58:19 发布 | 2009/10/11 03:29:54 更新
  • 分类: 动漫  剧场动画 

sky200700

精华资源: 193

全部资源: 193

相关: 分享到新浪微博   转播到腾讯微博   分享到开心网   分享到人人   分享到QQ空间   订阅本资源RSS更新   美味书签  subtitle
该内容尚未提供权利证明,无法提供下载。
中文名死神剧场版3:呼唤君之名
英文名Bleach The Movie 3: Fade To Black
资源格式DVDRip
版本[1280x720]
发行时间2009年
导演阿部记之
地区日本
语言日语
简介

IPB Image

【片  名】死神剧场版3: BLEACH Fade to Black (君の名を呼ぶ)
【片  长】1h 33 min
【字  幕】N/A
【文件格式】H264 + MP3
【视频尺寸】1280 x 720

【内容介绍】
——现在,渐渐明了的是露琪亚的过去 那封闭於『记忆之暗』中的『真实』。
  在实验室里工作的涅被像镰刀一样的东西袭击,身体产生了异变。 涅突然像疯了似的,没有缘由地乱敲试验装置的操作盘。 於是,一瞬间瀞灵廷被灵子云所覆盖,死神们都准备去联络涅。
  当剑八冲进涅的实验室时,发生了巨大的灵子爆炸。 然后,瀞灵廷被破坏了。
  露琪亚惊愕地在远处发现了瀞灵廷被破坏,在她面前出现了某个影子。 那个影子向露琪亚斩下镰刀,露琪亚的身体(心)之中像是有什么东西消失了……
  同时,现世中感觉到异变的一护去找浦原。一护从浦原那裏听到了「瀞灵廷被破坏」的消息,便和魂一同去尸魂界。
  在崩坏的净灵廷中等待著一护的,是消除了和一护相关记忆的恋次等人。不仅仅是一护的事情,连露琪亚的事情都消失了。 在死神面前虚化的一护,被当成了破坏净灵廷的犯人追杀……。
  尸魂界里到底发生了什么? 谜之两个黑影的真实身份是? 露琪亚去了哪里? 一护孤独的战斗开始了……

【STAFF】
久保帯人 (原作者)
阿部记之 (监督) 
森田成一 (出演者)
折笠富美子 (出演者) 
平野綾 (出演者) 
神谷浩史 (出演者) 
高桥ナツコ (脚本) 
大久保昌弘 (脚本) 
工藤昌史 (キャラクターデザイン) 

【CAST】
  黑崎一护———森田成一
  主角朽木露琪亚——折笠富美子
  石田雨龙———杉山纪彰
  茶渡泰虎———安元洋贵
  井上织姬———松冈由贵

【官方网站】
  http://www.j-bleach.com/

(简介转自猪猪字幕组)

代码
Format                           : AVI
Format/Info                      : Audio Video Interleave
File size                        : 934 MiB
Duration                         : 1h 33mn
Overall bit rate                 : 1 403 Kbps
Writing library                  : This file was made by AviUtl 0.99h4.

Video
Format                           : AVC
Format/Info                      : Advanced Video Codec
Format profile                   : High@L3.1
Format settings, CABAC           : Yes
Format settings, ReFrames        : 1 frame
Codec ID                         : H264
Duration                         : 1h 33mn
Bit rate                         : 1 200 Kbps
Width                            : 1 280 pixels
Height                           : 720 pixels
Display aspect ratio             : 16/9
Frame rate                       : 23.976 fps
Resolution                       : 24 bits
Colorimetry                      : 4:2:0
Scan type                        : Progressive
Bits/(Pixel*Frame)               : 0.054
Stream size                      : 799 MiB (86%)
Writing library                  : x264 core 66 r1093bm 1df50b9
Encoding settings                : cabac=1 / ref=1 / deblock=1:0:0 / analyse=0x3:0x33 / me=umh / subme=7 / psy_rd=0.0:0.0 / mixed_ref=0 / me_range=16 / chroma_me=1 / trellis=1 / 8x8dct=1 / cqm=0 / deadzone=21,11 / chroma_qp_offset=0 / threads=8 / thread_queue=8 / nr=0 / decimate=1 / mbaff=0 / bframes=0 / keyint=250 / keyint_min=25 / scenecut=40(pre) / rc=2pass / bitrate=1200 / ratetol=1.0 / qcomp=0.60 / qpmin=10 / qpmax=51 / qpstep=4 / cplxblur=20.0 / qblur=0.5 / ip_ratio=1.40 / aq=1:1.00:0:10.00

Audio
Format                           : MPEG Audio
Format version                   : Version 1
Format profile                   : Layer 3
Codec ID                         : 55
Codec ID/Hint                    : MP3
Duration                         : 1h 33mn
Bit rate mode                    : Constant
Bit rate                         : 192 Kbps
Channel(s)                       : 2 channels
Sampling rate                    : 48.0 KHz
Resolution                       : 16 bits
Stream size                      : 128 MiB (14%)
Alignment                        : Split accross interleaves
Interleave, duration             : 33 ms (0.80 video frame)
Interleave, preload duration     : 42 ms

正在读取……

这里是其它用户补充的资源(我也要补充):

allege 2009/10/11 04:15:42 补充
我也从BT上拖下这个源,制作了字幕,中日双语 详情见(附BT高速链接)http://www.VeryCD.com/group

该内容尚未提供权利证明,无法提供下载。
正在加载,请稍等...

点击查看所有39网友评论

 

(?) [公告]留口水、评论相关规则 | [活动]每日签到 轻松领取电驴经验

    小贴士:
  1. 类似“顶”、“沙发”之类没有营养的文字,对勤劳贡献的楼主来说是令人沮丧的反馈信息。
  2. 提问之前请再仔细看一遍楼主的说明,或许是您遗漏了。
  3. 勿催片。请相信驴友们对分享是富有激情的,如果确有更新版本,您一定能搜索到。
  4. 请勿到处挖坑绊人、招贴广告。既占空间让人厌烦,又没人会搭理,于人于己都无利。
  5. 如果您发现自己的评论不见了,请参考以上4条。