v

您的位置:VeryCD综艺科教节目

综艺资源事务区


《荒野求生秘技 第一季 第二季》(Man Vs. Wild Season 1 Season 2)两季全[DVDRip]

  • 状态: 精华资源
  • 摘要:
    发行时间2006年
    地区美国
    语言英语
  • 时间: 2009/10/07 11:00:59 发布 | 2009/10/07 14:22:20 更新
  • 分类: 综艺  科教节目 

yezh12

精华资源: 6

全部资源: 10

相关: 分享到新浪微博   转播到腾讯微博   分享到开心网   分享到人人   分享到QQ空间   订阅本资源RSS更新   美味书签  subtitle
该内容尚未提供权利证明,无法提供下载。
中文名荒野求生秘技 第一季 第二季
英文名Man Vs. Wild Season 1 Season 2
资源格式DVDRip
版本两季全
发行时间2006年
电视台Discovery Channel
地区美国
语言英语
简介

IPB Image

与贝尔.格里尔斯一起在世上最荒凉的环境中挣扎求存。无论计划如何周详,你的旅程也可能出岔子。一个错误的决定足以使人要挣扎求存。即使最富经验的旅行家也有迷失、被困和惘然的时候,甚至陷入致命的险境之中。我们要如何摆脱险境?要做什么才能保命?
  Discovery频道全新一辑节目《荒野求生秘技》的主持贝尔.格里尔斯(Bear Grylls)将会置身于一名被困旅客的处境中,然后,教我们怎样在世上最恶劣,却又是最多人毅然前往的环境中求生。
  Bear Grylls,1974年生,是个登山家、畅销书作家、国际演讲家、空手道黑带、前英军特种兵。在非洲一次跳伞中发生意外,背部三处受伤,不得不停止服役,可就是这样,两年后他还去爬了珠穆朗玛峰,并且成为英国最年轻的成功登顶并活着下来的人。那年,他23岁。
  在每一集的《荒野求生秘技》中,贝尔会将自己困于一处受欢迎的野外目的地;那儿经常是游客迷路和遇险的地方。他会空降到热带雨林,沿绳滑下至沙漠和湖泊,以及登上美洲最高和最荒凉的山顶。置身于真实的环境中,贝尔会利用其专业的求生技术,设法逃离险境,努力求存,以及寻找重回人类社区的出路。
  贝尔是一名经验丰富的冒险家,他曾于英军的特种部队服役。作为一位求生专家,他曾到过和做过大部份常人都未能应付的地方和事情。他的历险包括攀登珠穆朗玛峰,
  围绕着英伦岛屿玩水上电单车,乘坐小艇跨越结冰的北大西洋,以及攀登被艾德蒙.希拉里爵士(Sir Edmund Hillary)形容为不可逾越的喜玛拉雅山山巅。然而,今回他会作出截然不同的尝试。
  计划周详的假期不见得都有完美的结局,走错一条路也许就会落得挣扎求生的下场,即便是饶富旅行经验的人也会迷路、受困、失去方向感,甚至面临致命危机。遇上这些状况,我们要如何脱困?我们又该如何求生? 《荒野求生秘技》由贝尔吉罗斯主持,他将设身处地教导受困的游客,如何在最险恶的环境下求生。7月13 日起,《荒野求生秘技》将于每周五晚上10点首播,回放时段为周六下午4点,晚间8点,周日下午1点。
  在每一集的《荒野求生秘技》,贝尔都会让自己受困在游客最容易迷失或遇难的荒野。他跳伞进入雨林,垂降进入沙漠、湖泊,并前往美洲渺无人烟的第一高峰。亲身受困的贝尔,必须运用他的求生专长,逃脱极度险恶的环境,重返文明世界的怀抱。贝尔曾于英国特种部队服役,经常出生入死、冒险犯难。求生是他的专长,一般人不敢轻易造访的地方,不敢恣意妄为的举动,对他而言都不构成威胁。他的 冒险事迹包括攀登圣母峰,骑乘水上摩托车环绕不列颠群岛,搭乘小船横越冰寒的北大西洋,及攀登希拉瑞爵士口中「无法征服」的喜马拉雅山;但他现在面临的险 境与过去截然不同。且看贝尔从犹他州沙漠的流沙死里逃生,在哥斯达黎加驾船行驶于湍急的河流中,在阿尔卑斯山搭建雪屋,在夏威夷大胆穿越鲨鱼成群出没的水域,在野外寻找蛆、草根、莓果充饥;历尽千辛万苦逃离各种恶劣、甚至可能致命的环境。
  Discovery channel里的户外节目;Man VS wild.
  有一猛男给大家实战演示如何在只有一把刀(类似在丛林迷失)的情况下,靠自己走出来,类似如何寻找正确的路,如何寻找食物等等,每一集都换不同的环境(沙漠/丛林/雪山...),很多令人吃惊的镜头,如生吃蛇蛋,啃蚂蚁,啃生鱼......
  关于《荒野求生秘技》主持人贝尔吉罗斯
  贝尔吉罗斯身兼探险家、作家及电视节目主持人三重身份,他在英国的威特岛长大,年轻时就跟随父亲在当地登山。
  贝尔是空手道黑带高手,曾在英国特种部队 - 特种空勤队服役三年;服役期间,在非洲南部跳伞时摔断三处背嵴。尽
  如此,他靠着自身的奋斗和努力,登上埃佛勒斯峰并成功折返,成为英国最年轻的登山高手。贝尔在第一本著作《登上埃佛勒斯峰的孩子》阐述自身经历。
  除此之外,贝尔在无人协助的情况下,领导队伍乘坐硬底橡皮艇,横越结冰的北大西洋,立下创举。他将这次冒险记录在《冰洋历险记》中,该书曾入选英国年度最佳运动书籍,他也因领导这次创纪录的探险,获得英国皇家海军致赠谢金。
  2005年6月,贝尔打破世界纪录,在高空举办晚宴,餐桌就悬吊在24,500呎高处的热气球下方。他从热气球的篮子垂降至餐桌旁,身穿全套海军制服吃完三道菜,然后举杯向女王致敬,并跳伞降落地面。
  他希望借此颂扬王子信托基金会及爱丁堡公爵奖学金的慈善义行。
  去年他主持了一系列电视节目《兵团放逐实记》,带领一群年轻人到西撒哈拉沙漠,体验法国外籍兵团严苛异常的基础训练。
  贝尔最近主持了Discovery频道的《荒野求生秘技》系列节目,每一集节目中,他都会让自己受困在游客经常迷路且不知所措的地点。在设法回到文明世界的途中,他因地制宜示范各种求生方法,包括从犹他州沙漠的流沙中脱身,在哥斯达黎加穿越湍急河流,在阿尔卑斯山搭建雪屋,以及在夏威夷用鱼叉捕鱼。
  探索频道每周一首播
  Bear Grylls介绍
  每年,珠峰都有人丧生,每10个登顶的人中就有一个死去。然而1998年5月26日,贝尔作为英国最年轻登顶珠峰并成功返回的人,入选了吉尼斯世界纪录,当时他只有23岁。
  在海拔26000英尺的死亡地带,在严酷天气、缺少睡眠、缺氧的情况下,贝尔待了19天。在他第一次下撤过程中,贝尔差点死在19000英尺的一个冰缝。当时脚下的冰突然碎裂,他掉了下去,被摔得失去知觉,好在他拴在一根登山绳上,绳子救了他,队友把他拉了上来。

引用
Code: Select all
General
Complete name : Man.Vs.Wild.s01e01.The.Rockies.(DVDRip.eng.rus.AC3.HQ-Video.XviD.by.Linas).avi
Format : AVI
Format/Info : Audio Video Interleave
File size : 700 MiB
Duration : 43mn 25s
Overall bit rate : 2 252 Kbps
Director : Linas
Writing application : VirtualDubMod 1.5.10.2 (build 2542/release)
Writing library : VirtualDubMod build 2542/release

Video
Format : MPEG-4 Visual
Format profile : Streaming Video@L1
Format settings, BVOP : Yes
Format settings, QPel : Yes
Format settings, GMC : No warppoints
Format settings, Matrix : Default
Codec ID : XVID
Codec ID/Hint : XviD
Duration : 43mn 25s
Bit rate : 1 854 Kbps
Width : 640 pixels
Height : 480 pixels
Display aspect ratio : 4/3
Frame rate : 25.000 fps
Resolution : 24 bits
Colorimetry : 4:2:0
Scan type : Progressive
Bits/(Pixel*Frame) : 0.241
Stream size : 576 MiB (82%)
Writing library : XviD 50

Audio #1 (english)
Format : AC-3
Format/Info : Audio Coding 3
Codec ID : 2000
Duration : 43mn 25s
Bit rate mode : Constant
Bit rate : 192 Kbps
Channel(s) : 2 channels
Channel positions : L R
Sampling rate : 48.0 KHz
Stream size : 59.6 MiB (9%)
Alignment : Split accross interleaves
Interleave, duration : 40 ms (1.00 video frame)
Interleave, preload duration : 500 ms

Audio #2 (russian)
Format : AC-3
Format/Info : Audio Coding 3
Codec ID : 2000
Duration : 43mn 25s
Bit rate mode : Constant
Bit rate : 192 Kbps
Channel(s) : 2 channels
Channel positions : L R
Sampling rate : 48.0 KHz
Stream size : 59.6 MiB (9%)
Alignment : Split accross interleaves
Interleave, duration : 40 ms (1.00 video frame)
Interleave, preload duration : 500 ms

IPB Image
IPB Image

正在读取……

这里是其它用户补充的资源(我也要补充):

wolfbabby 2010/04/17 11:34:38 补充
...

该内容尚未提供权利证明,无法提供下载。

wolfbabby 2010/05/09 00:40:11 补充
...

该内容尚未提供权利证明,无法提供下载。

wolfbabby 2010/05/09 00:41:13 补充
...

该内容尚未提供权利证明,无法提供下载。

wolfbabby 2010/05/09 21:42:11 补充
...

该内容尚未提供权利证明,无法提供下载。

wolfbabby 2010/05/19 14:10:05 补充
...

该内容尚未提供权利证明,无法提供下载。
正在加载,请稍等...

点击查看所有358网友评论

 

(?) [公告]留口水、评论相关规则 | [活动]每日签到 轻松领取电驴经验

    小贴士:
  1. 类似“顶”、“沙发”之类没有营养的文字,对勤劳贡献的楼主来说是令人沮丧的反馈信息。
  2. 提问之前请再仔细看一遍楼主的说明,或许是您遗漏了。
  3. 勿催片。请相信驴友们对分享是富有激情的,如果确有更新版本,您一定能搜索到。
  4. 请勿到处挖坑绊人、招贴广告。既占空间让人厌烦,又没人会搭理,于人于己都无利。
  5. 如果您发现自己的评论不见了,请参考以上4条。