v

您的位置:VeryCD综艺晚会典礼

综艺资源事务区


《2009年第61届艾美奖颁奖典礼》(61st Primetime Emmy Awards )更新红毯秀[HDTV]

  • 状态: 精华资源
  • 摘要:
    发行时间2009年9月20日
    地区美国
    语言英语
  • 时间: 2009/09/22 01:38:32 发布 | 2009/10/15 16:49:55 更新
  • 分类: 综艺  晚会典礼 

logispace

精华资源: 1

全部资源: 1

相关: 分享到新浪微博   转播到腾讯微博   分享到开心网   分享到人人   分享到QQ空间   订阅本资源RSS更新   美味书签  subtitle
该内容尚未提供权利证明,无法提供下载。
中文名2009年第61届艾美奖颁奖典礼
英文名61st Primetime Emmy Awards
别名2009年第61届美国电视黄金档艾美奖颁奖典礼,The Emmy Awards 2009
资源格式HDTV
版本更新红毯秀
发行时间2009年9月20日
电视台哥伦比亚广播公司 CBS
地区美国
语言英语
简介

IPB Image

  美国洛杉矶当地时间9月20日傍晚,第61届美国电视艾美奖在洛杉矶闹市区的诺基亚中心举行。经历“入围奖项增加”与“瘦身计划失败”两大风波之后,艾美奖能否赢回观众的心也是今年的一大课题。好在主持人尼尔-帕特里克-哈里斯最终掌控住了场面,妙语不断的他配合冷门不断的颁奖结果让本次艾美奖大获成功,用国外某媒体的一句话来概括本届艾美奖,那就是“Big laughs, shockers at the Emmys”。

IPB Image

  “艾美奖”由两个奖构成,通常说的“艾美奖”是指黄金时段电视节目艾美奖,由总部位于洛杉矶的电视艺术与科学学院颁发。另外一个日间节目艾美奖,由总部位于纽约的国家电视艺术与科学学院颁发。

  电视艺术与科学学院在1949年首次颁发艾美奖。1999年,负责日间节目艾美奖的国家电视艺术与科学学院成立了 N ATAS国际理事会,总部位于纽约,代表着近40个国家和地区的150多家公司和组织。每年都有包括中国在内的不少亚洲国家节目入选。被提名国际艾美奖的电视节目长度不得少于30分钟,分为电视剧、纪录片、艺术纪录片、流行艺术、艺术演出、儿童和青少年节目6大类。

在本次颁奖典礼上主持人尼尔-帕特里克-哈里斯的表现成为一大看点,国外的媒体给予了相当高的评价:"去年的艾美奖由五个主持人接龙主持,很遗憾,精彩程度还不及本届艾美奖的五分钟。这都要归功于本届主持人尼尔-帕特里克-哈里斯(Neil Patrick Harris)。"

  电视艺术与科学学会在去年选择由尼尔来主持本届的艾美奖,这个决定得到了影迷的肯定,而今晚的他也不负众望,完美的奉上了一次精彩的盛宴。本次表现有理由让人相信:一个精彩的颁奖典礼应该充满娱乐性,找好的编剧来写剧本,并且由尼尔主持。

  制作人们很好的控制住了本届艾美奖的节奏,不断插播精心剪辑的影片,虽然所有奖项都是现场揭晓,但在盛宴落下帷幕之后,刚好过去三个小时。

  哈里斯扮演了一次完美主持人,他不仅调动好了现场的气氛,还不忘娱乐电视机前的观众,整个过程行云流水,轻松自如。虽然本届颁奖典礼爆出了不少的惊喜,但由于哈里斯的出现,本届艾美奖最大的惊喜无疑是典礼本身。
IPB Image
尼尔-帕特里克-哈里斯 登场演唱"放下遥控器"





英文字幕只找到cd1,由http://bbs.sfileydy.com制作

中文字幕文件来自YYeTs

代码

Complete name :[第61届美国电视黄金档艾美奖颁奖典礼].the.61st.annual.primetime.emmy.awards.cd1.hdtv.xvid-2hd.avi
      Format : AVI
      Format/Info : Audio Video Interleave
      File size : 699 MiB
      Duration : 1h 5mn
      Overall bit rate : 1 487 Kbps
      Writing application : MEncoder dev-SVN-r26940
      Writing library : MPlayer
   Video #0
      ID : 0
      Format : MPEG-4 Visual
      Format profile : AdvancedSimple@L5
      Format settings, BVOP : Yes
      Format settings, QPel : No
      Format settings, GMC : No warppoints
      Format settings, Matrix : Default (H.263)
      Muxing mode : Packed bitstream
      Codec ID : XVID
      Codec ID/Hint : XviD
      Duration : 1h 5mn
      Bit rate : 1 343 Kbps
      Width : 624 pixels
      Height : 352 pixels
      Display aspect ratio : 16:9
      Frame rate : 29.970 fps
      Resolution : 24 bits
      Colorimetry : 4:2:0
      Scan type : Progressive
      Bits/(Pixel*Frame) : 0.204
      Stream size : 632 MiB (90%)
      Writing library : XviD 1.2.1 (UTC 2008-12-04)
   Audio #1
      ID : 1
      Format : MPEG Audio
      Format version : Version 1
      Format profile : Layer 3
      Codec ID : 55
      Codec ID/Hint : MP3
      Duration : 1h 5mn
      Bit rate mode : Variable
      Bit rate : 130 Kbps
      Nominal bit rate : 128 Kbps
      Channel(s) : 2 channels
      Sampling rate : 48.0 KHz
      Resolution : 16 bits
      Stream size : 61.2 MiB (9%)
      Alignment : Aligned on interleaves
      Interleave, duration : 24 ms (0.72 video frame)
      Interleave, preload duration : 510 ms
      Writing library : LAME3.90.
      Encoding settings : -m j -V 4 -q 2 -lowpass 17.6 --abr 128


声明:所有资源均来自网络

--------------------------------------------------------------------------------------------------
以下是部分红毯秀照片

IPB Image
IPB Image
IPB Image
IPB Image
IPB Image
IPB Image
IPB Image
IPB Image
IPB Image
IPB Image
IPB Image
IPB Image
IPB Image
IPB Image
IPB Image
IPB Image
IPB Image
IPB Image
IPB Image
IPB Image
IPB Image
IPB Image


IPB Image
IPB Image
IPB Image
IPB Image
IPB Image
IPB Image
IPB Image
IPB Image
IPB Image
IPB Image
IPB Image
IPB Image
IPB Image
IPB Image
IPB Image
IPB Image
IPB Image
IPB Image
IPB Image
IPB Image
IPB Image
IPB Image
IPB Image
IPB Image
IPB Image
IPB Image
IPB Image
IPB Image
IPB Image
IPB Image
IPB Image
IPB Image
IPB Image
IPB Image
IPB Image
IPB Image
IPB Image

正在读取……

这里是其它用户补充的资源(我也要补充):

chenhao2424 2009/09/24 13:59:15 补充
本届艾美奖颁奖典礼的开场曲……完全自己制作,来源就是楼主提供的。头次制作字幕,不足之处望大家

该内容尚未提供权利证明,无法提供下载。

logispace 2009/10/14 12:35:18 补充
引用(lyx0913 @ 2009-10-13, 08:31 PM) 引用(logispace @ 2009-09-25, 12:18 AM) 引用(hmy @ 200

该内容尚未提供权利证明,无法提供下载。

logispace 2009/10/15 12:37:54 补充
引用(mp3456 @ 2009-09-22, 07:45 AM) 没有红地毯???

该内容尚未提供权利证明,无法提供下载。
正在加载,请稍等...

点击查看所有166网友评论

 

(?) [公告]留口水、评论相关规则 | [活动]每日签到 轻松领取电驴经验

    小贴士:
  1. 类似“顶”、“沙发”之类没有营养的文字,对勤劳贡献的楼主来说是令人沮丧的反馈信息。
  2. 提问之前请再仔细看一遍楼主的说明,或许是您遗漏了。
  3. 勿催片。请相信驴友们对分享是富有激情的,如果确有更新版本,您一定能搜索到。
  4. 请勿到处挖坑绊人、招贴广告。既占空间让人厌烦,又没人会搭理,于人于己都无利。
  5. 如果您发现自己的评论不见了,请参考以上4条。