v

您的位置:VeryCD综艺纪录片

综艺资源事务区


《世纪大阅兵》八一电影制片厂[DVDRip]

  • 状态: 精华资源
  • 摘要:
    发行时间1999年
    地区大陆
    语言普通话
  • 时间: 2009/09/21 17:51:10 发布 | 2009/09/25 13:37:19 更新
  • 分类: 综艺  纪录片 

abcrci

精华资源: 5

全部资源: 6

相关: 分享到新浪微博   转播到腾讯微博   分享到开心网   分享到人人   分享到QQ空间   订阅本资源RSS更新   美味书签  subtitle
该内容尚未提供权利证明,无法提供下载。
中文名世纪大阅兵
资源格式DVDRip
版本八一电影制片厂
发行时间1999年
制作发行中国人民解放军八一电影制片厂
中国三环音像社
地区大陆
语言普通话
简介

IPB Image
上传到大米盘做源。
我rip的版本。感觉比另一个帖子rip的好,去黑边,去拉丝。字幕里包含的srt字幕是我OCR的,未认真校对,有错误


影片《世纪大阅兵》记录了庆祝中华人民共和国成立50周年盛典的阅兵式上,中国人民解放军陆海空三军、人民武装警察、民兵和预备役部队以一流军事素质和崭新精神面貌接受检阅的盛况。同时,影片还以阅兵为主线,将历史与未来、战争与和平、军队与国家等主题融为一体,展示了新中国成立50年,特别是改革开放 20年来中国取得的伟大成就。

纪录影片《世纪大阅兵》摄制体会
  颜品
  50年,对于我们这个有着五千年文化的文明古国来说,只不过是短暂的一瞬;50年,对于我们年轻的共和国来讲,却是不可磨灭的辉煌历史;50年,人民军队伴随着共和国成长而不断壮大。时间和空间交汇在那个最激动人心的时刻,1999年10月1日上午10时,在中华民族历史上辉煌的旷世大典上,人民解放军以规模空前的阅兵式,把中国展现给世界。这是新中国50年来阵容最强,规模最大,受阅场面最为气势恢宏的一次大阅兵。

  15年前,刚刚穿上军装的我作为一名观众在电视机前观看了改革开放之初的建国35周年的阅兵式;15年后,我又有幸作为导演之一参加建国50周年纪录影片《世纪大阅兵》摄制工作,心情异常激动,又深感责任重大。我与总导演滕安庆、导演刘凤玉提前几个月开始构思影片结构,以阅兵为主线,将国家与军队、历史与未来、战争与和平等主题融为一体,充分表达了人民解放军维护祖国安全与统一、促进世界和平与发展的坚强决心和强大力量,充分展示了共和国的沧桑巨变,人民军队的辉煌历史,特别是改革开放20 年来取得的伟大成就。在影片解说上采用男女两个声部,或高亢嘹亮,或婉转抒情,或气宇轩昂;在音乐处理上,主要采用进行曲,影片的序幕和尾声采用的是《解放军进行曲》主题变奏,在长达80分钟的长片中,观众不会感到疲劳;同时,还充分调动电影各种手段充实影片创作,根据影片声源丰富的特点,将铿锵的脚步,隆隆的战车,轰鸣的战机,用数字立体声进行制作,给人以心潮迭宕,热血沸腾,带给人强烈的震撼,令人产生生动逼真的现场感受和波澜壮阔的恢宏气势,这样将立体声制作运用于纪录影片在国内还属首次。纪录影片获得1999年度中国电影“华表奖”评委会奖,2000年第十一届罗马国际军事电影节评委会奖,近日又入选中宣部“五个一工程” 。

转自《解放军报》 2001年10月26日 第8版

http://bbs.3e-online.com/attachments/20090920_a81346c1b4e8b247e0c7ukugmXLnQZ3c.jpg

http://bbs.3e-online.com/attachments/20090920_3e4cc70480f2f37550b6RRzMjMAsaPie.jpg

http://bbs.3e-online.com/attachments/20090920_d544d6be6882f80302afjVpsVBnSj31c.jpg

http://bbs.3e-online.com/attachments/20090920_fdbeea940e61124eccd2n6U5hnaD72JC.jpg

http://bbs.3e-online.com/attachments/20090920_027c5996dd9f6d3c9c6fAHUBjq6uCeU9.jpg

http://bbs.3e-online.com/attachments/20090920_252c429e5fc84a913cealbPL63g4Vm78.jpg

http://bbs.3e-online.com/attachments/20090920_5ccc825eec288396d072LBbpxxo7jvex.jpg

http://bbs.3e-online.com/attachments/20090921_f902c084d8585eeedf4c3grSnrgZcnyQ.jpg

引用
General

Complete name : D:\[世纪大阅兵].1999.CN.DVDRip.Xvid-abcrci.avi
Format : AVI
Format/Info : Audio Video Interleave
File size : 1.36 GiB
Duration : 1h 16mn
Overall bit rate : 2 540 Kbps
Writing application : VirtualDubMod 1.5.10.2 (build 2540/release)
Writing library : VirtualDubMod build 2540/release

Video
Format : MPEG-4 Visual
Format profile : Streaming Video@L1
Format settings, BVOP : Yes
Format settings, QPel : No
Format settings, GMC : No warppoints
Format settings, Matrix : Default
Muxing mode : Packet Bitstream
Codec ID : XVID
Codec ID/Hint : XviD
Duration : 1h 16mn
Bit rate : 2 390 Kbps
Width : 720 pixels
Height : 396 pixels
Display aspect ratio : 16/9
Frame rate : 23.976 fps
Resolution : 24 bits
Colorimetry : 4:2:0
Scan type : Progressive
Bits/(Pixel*Frame) : 0.350
Stream size : 1.28 GiB (94%)
Writing library : XviD 50

Audio
Format : MPEG Audio
Format version : Version 1
Format profile : Layer 3
Codec ID : 55
Codec ID/Hint : MP3
Duration : 1h 16mn
Bit rate mode : Variable
Bit rate : 137 Kbps
Nominal bit rate : 128 Kbps
Channel(s) : 2 channels
Sampling rate : 48.0 KHz
Resolution : 16 bits
Stream size : 75.1 MiB (5%)
Alignment : Aligned on interleaves
Interleave, duration : 24 ms (0.58 video frame)
Interleave, preload duration : 471 ms
Writing library : LAME3.90.
Encoding settings : ABR

正在读取……

这里是其它用户补充的资源(我也要补充):

暂无补充资源
正在加载,请稍等...

点击查看所有30网友评论

 

(?) [公告]留口水、评论相关规则 | [活动]每日签到 轻松领取电驴经验

    小贴士:
  1. 类似“顶”、“沙发”之类没有营养的文字,对勤劳贡献的楼主来说是令人沮丧的反馈信息。
  2. 提问之前请再仔细看一遍楼主的说明,或许是您遗漏了。
  3. 勿催片。请相信驴友们对分享是富有激情的,如果确有更新版本,您一定能搜索到。
  4. 请勿到处挖坑绊人、招贴广告。既占空间让人厌烦,又没人会搭理,于人于己都无利。
  5. 如果您发现自己的评论不见了,请参考以上4条。