v

您的位置:VeryCD音乐欧美音乐

音乐资源事务区


Born Crain -《Walking in the Sun 》PV附[FLAC]

  • 状态: 精华资源
  • 摘要:
    音乐风格流行
    发行时间2007年06月11日
    地区比利时
    语言英语
  • 时间: 2009/09/16 20:43:31 发布 | 2009/09/16 20:57:13 更新
  • 分类: 音乐  欧美音乐 

donghaozhe

精华资源: 225

全部资源: 225

相关: 分享到新浪微博   转播到腾讯微博   分享到开心网   分享到人人   分享到QQ空间   订阅本资源RSS更新   美味书签  subtitle
该内容尚未提供权利证明,无法提供下载。
专辑英文名Walking in the Sun
歌手Born Crain
音乐风格流行
资源格式FLAC
版本PV附
发行时间2007年06月11日
地区比利时
语言英语
简介

IPB Image

专辑介绍:

Born Crain的网上资料少之又少,两个官网又分别是日文和德文。

从日文介绍来看,他是来自比利时的创作才子,选秀出身,签约日本avex唱片公司。2005年出道,2006年第一张专辑获得了本国的金唱片奖。在吉他大行其道的欧美流行乐坛,号称是继Daniel Powter之后的又一钢琴男(官网这么说的……)。曲风略显乖张,日本版的专辑里附上了专辑同名曲的音乐录影带。

❤❤❤❤❤❤❤❤欢迎加入我的音乐社区❤❤❤❤❤❤❤❤


❤❤❤♪♬♪♬ Music Video『Walking in the Sun』♪♬♪♬

http://www.tudou.com/v/deSSkPNvS2k

代码
PERFORMER "Born Crain"
TITLE "Walking in the Sun "
FILE "Born.Crain.-.[Walking.in.the.Sun.(Japan.Edition)].专辑.(FLAC).flac" WAVE
  TRACK 01 AUDIO
    TITLE "Walking in the Sun"
    PERFORMER "Born Crain"
    INDEX 01 00:00:00
  TRACK 02 AUDIO
    TITLE "Fools Rush In"
    PERFORMER "Born Crain"
    INDEX 01 03:55:27
  TRACK 03 AUDIO
    TITLE "Juliex"
    PERFORMER "Born Crain"
    INDEX 01 07:43:45
  TRACK 04 AUDIO
    TITLE "Don't Ever Go"
    PERFORMER "Born Crain"
    INDEX 01 11:58:05
  TRACK 05 AUDIO
    TITLE "Captivated"
    PERFORMER "Born Crain"
    INDEX 01 16:15:20
  TRACK 06 AUDIO
    TITLE "Good Times"
    PERFORMER "Born Crain"
    INDEX 01 19:58:32
  TRACK 07 AUDIO
    TITLE "Girls Just Wanna Have Fun"
    PERFORMER "Born Crain"
    INDEX 01 23:33:10
  TRACK 08 AUDIO
    TITLE "Right Back to Me"
    PERFORMER "Born Crain"
    INDEX 01 26:35:22
  TRACK 09 AUDIO
    TITLE "Best Thing in My Life"
    PERFORMER "Born Crain"
    INDEX 01 30:12:35
  TRACK 10 AUDIO
    TITLE "One True Lover"
    PERFORMER "Born Crain"
    INDEX 01 34:10:20
  TRACK 11 AUDIO
    TITLE "Sick of This Lonely Life"
    PERFORMER "Born Crain"
    INDEX 01 37:59:47
  TRACK 12 AUDIO
    TITLE "Walking in the Sun [Unplugged Version]"
    PERFORMER "Born Crain"
    INDEX 01 41:01:72
  TRACK 13 AUDIO
    TITLE "Don't Ever Go [Unplugged Version] "
    PERFORMER "Born Crain"
    INDEX 01 44:51:07



专辑曲目

01. Walking in the Sun
02. Fools Rush In
03. Juliex
04. Don't Ever Go
05. Captivated
06. Good Times
07. Girls Just Wanna Have Fun
08. Right Back to Me
09. Best Thing in My Life
10. One True Lover
11. Sick of This Lonely Life
12. Walking in the Sun [Unplugged Version]
13. Don't Ever Go [Unplugged Version]

正在读取……

这里是其它用户补充的资源(我也要补充):

暂无补充资源
正在加载,请稍等...

点击查看所有8网友评论

 

(?) [公告]留口水、评论相关规则 | [活动]每日签到 轻松领取电驴经验

    小贴士:
  1. 类似“顶”、“沙发”之类没有营养的文字,对勤劳贡献的楼主来说是令人沮丧的反馈信息。
  2. 提问之前请再仔细看一遍楼主的说明,或许是您遗漏了。
  3. 勿催片。请相信驴友们对分享是富有激情的,如果确有更新版本,您一定能搜索到。
  4. 请勿到处挖坑绊人、招贴广告。既占空间让人厌烦,又没人会搭理,于人于己都无利。
  5. 如果您发现自己的评论不见了,请参考以上4条。