v

您的位置:VeryCD音乐欧美音乐

音乐资源事务区


Joshua Payne -《Your Love, My Home》[MP3]+[FLAC]

  • 状态: 精华资源
  • 摘要:
    音乐风格流行
    发行时间2004年07月13日
    地区美国
    语言英语
  • 时间: 2009/09/15 22:32:15 发布 | 2009/09/15 23:30:26 更新
  • 分类: 音乐  欧美音乐 

donghaozhe

精华资源: 225

全部资源: 225

相关: 分享到新浪微博   转播到腾讯微博   分享到开心网   分享到人人   分享到QQ空间   订阅本资源RSS更新   美味书签  subtitle
该内容尚未提供权利证明,无法提供下载。
专辑英文名Your Love, My Home
歌手Joshua Payne
音乐风格流行
资源格式FLAC
版本[MP3]+
发行时间2004年07月13日
地区美国
语言英语
简介

IPB Image

音乐风格: Crossover

专辑介绍:

Joshua Payne生下就先天失聪,幸好幼年手术成功听力恢复了大半。为了训练他的听力,手术后他父母在家不断播放各种类型的音乐,好让他浸淫在音乐的环境里自然康复。与此同时Joshua的父母发现他们的儿子拥有一副天生的好嗓子,因此就鼓励Joshua参加教堂及学校里的合唱团,Joshua最早的歌唱生涯就此开始。此后他就以这得天独厚的天赋战胜了先天的听障,为自己的人生道路以及乐团增添了一个传奇。大学毕业后他赢得多项古典乐大奖,后来为了生计在餐厅工作、演舞台剧。尽管如此,他依然没有放弃成为歌手的目标,直至有天遇到监制 Michael Omartian并深得其欣赏,一颗闪亮的星星就此诞生。

在这张专辑中Joshua Payne翻唱Bread的《If》与 Chicago的《If You Leave Me Now》,深情款款、荡气回肠;翻唱《Let it be me》更比茵伽多了份柔情和坚定;而他亲自创作的《The Moon》,轻爵士则更令人怦然心动。

❤❤❤❤❤❤❤❤欢迎加入我的音乐社区❤❤❤❤❤❤❤❤


❤❤❤♪♬♪♬ 试听曲目『Your Love, My Home』♪♬♪♬

http://www.tudou.com/v/h3CPCHacMUc

❤❤❤♪♬♪♬ 试听曲目『If』♪♬♪♬

http://www.tudou.com/v/WaNGAGQGQLI

IPB Image

代码
PERFORMER "Joshua Payne"
TITLE "Your Love, my home"
FILE "Joshua.Payne.-.[Your.Love,My.Home].专辑.(FLAC).flac" WAVE
  TRACK 01 AUDIO
    TITLE "Your Love, My Home"
    PERFORMER "Joshua Payne"
    INDEX 01 00:00:00
  TRACK 02 AUDIO
    TITLE "Remember Yesterday"
    PERFORMER "Joshua Payne"
    INDEX 01 04:22:15
  TRACK 03 AUDIO
    TITLE "If"
    PERFORMER "Joshua Payne"
    INDEX 01 09:00:57
  TRACK 04 AUDIO
    TITLE "Nature"
    PERFORMER "Joshua Payne"
    INDEX 01 12:49:65
  TRACK 05 AUDIO
    TITLE "The Art of the Heart"
    PERFORMER "Joshua Payne"
    INDEX 01 17:33:72
  TRACK 06 AUDIO
    TITLE "Let It Be Me"
    PERFORMER "Joshua Payne"
    INDEX 01 22:36:15
  TRACK 07 AUDIO
    TITLE "The Moon"
    PERFORMER "Joshua Payne"
    INDEX 01 27:53:50
  TRACK 08 AUDIO
    TITLE "If You Leave Me Now"
    PERFORMER "Joshua Payne"
    INDEX 01 32:54:60
  TRACK 09 AUDIO
    TITLE "City Song"
    PERFORMER "Joshua Payne"
    INDEX 01 36:58:25
  TRACK 10 AUDIO
    TITLE "My World"
    PERFORMER "Joshua Payne"
    INDEX 01 40:53:25
  TRACK 11 AUDIO
    TITLE "You Made My Life Stand Still"
    PERFORMER "Joshua Payne"
    INDEX 01 45:48:22



专辑曲目

01. Your Love, My Home
02. Remember Yesterday
03. If
04. Nature
05. Art Of The Heart
06. Let It Be Me
07. The Moon
08. If You Leave Me Now
09. City Song
10. My World
11. You Made My Life Stand Still

正在读取……

这里是其它用户补充的资源(我也要补充):

暂无补充资源
正在加载,请稍等...

点击查看所有26网友评论

 

(?) [公告]留口水、评论相关规则 | [活动]每日签到 轻松领取电驴经验

    小贴士:
  1. 类似“顶”、“沙发”之类没有营养的文字,对勤劳贡献的楼主来说是令人沮丧的反馈信息。
  2. 提问之前请再仔细看一遍楼主的说明,或许是您遗漏了。
  3. 勿催片。请相信驴友们对分享是富有激情的,如果确有更新版本,您一定能搜索到。
  4. 请勿到处挖坑绊人、招贴广告。既占空间让人厌烦,又没人会搭理,于人于己都无利。
  5. 如果您发现自己的评论不见了,请参考以上4条。