v

您的位置:VeryCD动漫动漫周边

动漫资源事务区


《太鼓达人动画主题音乐集》(Taiko No Tatsujin)[大热唱! 歌祭り!][附BK][FLAC]

  • 状态: 精华资源
  • 摘要:
    发行时间2005年08月24日
    对白语言日语
  • 时间: 2009/08/28 14:04:37 发布 | 2009/08/29 10:25:36 更新
  • 分类: 动漫  动漫周边 

h440783

精华资源: 25

全部资源: 25

相关: 分享到新浪微博   转播到腾讯微博   分享到开心网   分享到人人   分享到QQ空间   订阅本资源RSS更新   美味书签  subtitle
该内容尚未提供权利证明,无法提供下载。
中文名太鼓达人动画主题音乐集
英文名Taiko No Tatsujin
别名太鼓の达人
资源格式FLAC
版本[大热唱! 歌祭り!][附BK]
发行时间2005年08月24日
地区日本
对白语言日语
简介

IPB Image

【游戏介绍】

太鼓达人是由日本NAMCO公司在2001年推出的一款音乐游戏。迄今已推出街机版,DS版,PS2版,PSP版以及手机版。太鼓达人收录的曲目是来自日本流行歌曲,动画片,古典音乐等,有不少曲目大家都耳熟能详。

【专辑介绍】

太鼓の达人 とびっきり!アニメスペシャル 大热唱!歌祭り

IPB Image

* 商品番号: COCX-33324
* メディア: アルバムCD
* 组枚数: 1
* 発売日: 2005年08月24日
* 価格: 2,625円(税抜価格2,500円)


【Artist&Cast】

水木一郎 (アーティスト) 堀江美都子 (アーティスト)
影山ヒロノブ (アーティスト) 宍戸留美 (アーティスト)
泰勇気 (アーティスト) 土屋実纪 (アーティスト)
ならはしみき (アーティスト) 谷本贵义 (アーティスト)
桃井はるこ (アーティスト) 落合祐里香 (アーティスト)
山田ふしぎ (アーティスト) 高桥洋子 (アーティスト)


* 内容
今度は遂に本物が歌う!! 国民的ゲーム「太鼓の达人」シリーズ最新作の音楽アルバム。今作には、家族みんなで楽しめるアニメソング约30曲(プラスオリジナル曲10曲)を収録。そして今回は、 いままでのスタジオシンガーが歌唱したバージョンとは违い、オリジナル歌手が歌唱!! 堀江美都子、水木一郎、影山ヒロノブらが歌唱するアニメ名曲の数々!! 「マジンガーZ」「CHA-LA HEAD-CHA-LA」「ヤッターマンのうた」などを太鼓の达人ヴァージョンで新録。


【收录曲目】

01. 响け! 太鼓の达人 (水木一郎 堀江美都子 影山ヒロノブ)
02. リブルとラブルのマジカルファンタジー (堀江美都子)
03. ドリルファイター ゴーゴーDigDug(影山ヒロノブ)
04. L.O.V.E(宍戸留美)
05. BE THE ACE(泰勇気)
06. 未来への键(土屋実纪)
07. マジンガーZ(水木一郎)
08. 魔法使いサリー(堀江美都子)
09. CHA-LA HEAD-CHA-LA(影山ヒロノブ)
10. かつとマリ子の絵かきうた(ならはしみき)
11. Happy & Peace(谷本贵义)
12. 合体! ドンレンジャーロボ(水木一郎)
13. ワンダーモモーイ(桃井はるこ)
14. きっと もっと ずっと(水木一郎 堀江美都子 影山ヒロノブ)
15. 和太鼓戦队ドンレンジャー(谷本贵义)
16. 恋文2000(落合祐里香)
17. タ.コ.タ.イ.コ(ならはしみき)
18. おはよう! 太鼓サマー(谷本贵义)
19. 今夜はホーミー(落合祐里香)
20. 今日のご饭は太鼓盛り!(ならはしみき)
21. ダジャレdeオシャレ(谷本贵义)
22. さいたま2000(山田ふしぎ)
23. 虹色.梦色.太鼓色(ロングバーション)(高桥洋子)


引用
Exact Audio Copy V0.99 prebeta 4 from 23. January 2008

EAC extraction logfile from 15. April 2008, 9:48

V.A. / 太鼓の达人 とびっきり! アニメスペシャル 大热唱! 歌祭り!

Used drive : _NEC DVD+-RW ND-6500A Adapter: 0 ID: 0

Read mode : Secure
Utilize accurate stream : Yes
Defeat audio cache : Yes
Make use of C2 pointers : No

Read offset correction : 48
Overread into Lead-In and Lead-Out : No
Fill up missing offset samples with silence : Yes
Delete leading and trailing silent blocks : No
Null samples used in CRC calculations : No
Used interface : Installed external ASPI interface

Used output format : Internal WAV Routines
Sample format : 44.100 Hz; 16 Bit; Stereo


TOC of the extracted CD

Track | Start | Length | Start sector | End sector
---------------------------------------------------------
1 | 0:00.00 | 4:08.63 | 0 | 18662
2 | 4:08.63 | 3:19.62 | 18663 | 33649
3 | 7:28.50 | 2:57.60 | 33650 | 46984
4 | 10:26.35 | 1:57.55 | 46985 | 55814
5 | 12:24.15 | 1:50.65 | 55815 | 64129
6 | 14:15.05 | 3:47.48 | 64130 | 81202
7 | 18:02.53 | 1:50.65 | 81203 | 89517
8 | 19:53.43 | 1:08.32 | 89518 | 94649
9 | 21:02.00 | 1:34.03 | 94650 | 101702
10 | 22:36.03 | 1:53.47 | 101703 | 110224
11 | 24:29.50 | 1:34.65 | 110225 | 117339
12 | 26:04.40 | 3:38.23 | 117340 | 133712
13 | 29:42.63 | 4:07.70 | 133713 | 152307
14 | 33:50.58 | 3:19.62 | 152308 | 167294
15 | 37:10.45 | 2:09.60 | 167295 | 177029
16 | 39:20.30 | 2:06.08 | 177030 | 186487
17 | 41:26.38 | 1:59.47 | 186488 | 195459
18 | 43:26.10 | 2:21.43 | 195460 | 206077
19 | 45:47.53 | 2:14.07 | 206078 | 216134
20 | 48:01.60 | 2:04.20 | 216135 | 225454
21 | 50:06.05 | 2:26.30 | 225455 | 236434
22 | 52:32.35 | 1:55.23 | 236435 | 245082
23 | 54:27.58 | 4:34.70 | 245083 | 265702


Range status and errors

Selected range

Filename C:\TAIKO3.wav

Peak level 98.8 %
Range quality 100.0 %
Copy CRC 0D517FAD
Copy OK

No errors occurred


AccurateRip summary

Track 1 not present in database
Track 2 not present in database
Track 3 not present in database
Track 4 not present in database
Track 5 not present in database
Track 6 not present in database
Track 7 not present in database
Track 8 not present in database
Track 9 not present in database
Track 10 not present in database
Track 11 not present in database
Track 12 not present in database
Track 13 not present in database
Track 14 not present in database
Track 15 not present in database
Track 16 not present in database
Track 17 not present in database
Track 18 not present in database
Track 19 not present in database
Track 20 not present in database
Track 21 not present in database
Track 22 not present in database
Track 23 not present in database

None of the tracks are present in the AccurateRip database

End of status report

正在读取……

这里是其它用户补充的资源(我也要补充):

暂无补充资源
正在加载,请稍等...

点击查看所有38网友评论

 

(?) [公告]留口水、评论相关规则 | [活动]每日签到 轻松领取电驴经验

    小贴士:
  1. 类似“顶”、“沙发”之类没有营养的文字,对勤劳贡献的楼主来说是令人沮丧的反馈信息。
  2. 提问之前请再仔细看一遍楼主的说明,或许是您遗漏了。
  3. 勿催片。请相信驴友们对分享是富有激情的,如果确有更新版本,您一定能搜索到。
  4. 请勿到处挖坑绊人、招贴广告。既占空间让人厌烦,又没人会搭理,于人于己都无利。
  5. 如果您发现自己的评论不见了,请参考以上4条。