v

您的位置:VeryCD音乐古典音乐

音乐资源事务区


Richard Egarr & AAM -《亨德尔:管风琴协奏曲,作品第四号》(Handel: Organ Concertos Op.4)SACD[APE]

  • 状态: 精华资源
  • 摘要:
    古典类型协奏曲
    发行时间2008年
  • 时间: 2009/08/24 22:09:51 发布 | 2009/08/24 23:17:24 更新
  • 分类: 音乐  古典音乐 

韭菜爱毛豆

精华资源: 11

全部资源: 11

相关: 分享到新浪微博   转播到腾讯微博   分享到开心网   分享到人人   分享到QQ空间   订阅本资源RSS更新   美味书签  subtitle
该内容尚未提供权利证明,无法提供下载。
专辑英文名Handel: Organ Concertos Op.4
专辑中文名亨德尔:管风琴协奏曲,作品第四号
古典类型协奏曲
资源格式APE
版本SACD
发行时间2008年
地区美国
语言英语
简介

IPB Image
作 曲 家:George Frederic Handel
指 挥:Richard Egarr
录音时间:2006.11
录音地点:St Jude's-on-the-Hill, Hampstead Garden, London
唱片公司:harmonia mundi
唱片编号:HMU 807446
录音制式:DSD / Multi-ch Stereo
发行时间:2008
资源出处:原版CD抓轨(ape + cue + log + scan)
简介:
亨德尔除了作曲家的肥大头衔之外,同样以当时优秀的风琴师著称。除了那些穿插在清唱剧中中饱私囊的片段之外,还另写了两套协奏曲,每套含六首,分别编号为作品第4与第7。亨德尔的风琴作品,体现当时纤巧清晰的英国风格,与德奥系的灿烂和强力派头大相径庭。

这张唱片是08年度留声机唱片大奖(Gramophone Awards)入选作品,也确实名至实归。harmonia mundi是喜欢古乐的同志们的贴心老朋友了;同样是老朋友的霍格伍德(Christopher Hogwood)七十年代创办的古乐学会乐团(Academy Of Ancient Music, AAM)也是和马里纳的圣马丁室内乐团、平诺克的英国协奏乐团齐名的古乐大军之一。Egarr是06年接手AAM的新一代掌门人,风头甚健,短短几年内发片无数,好评如潮,VeryCD上已有五片。

附唱本扫描,最后四页是HM最新的唱片广告,可以之养眼~
另,Op.7在方长的来日发布。

西地本身是SACD格式,而本人压缩的只是普通CD层。



专辑曲目

Handel: Organ Concertos Op. 4
No.1 in G minor

01 I. Larghetto, e staccato
02 II. Allegro
03 III. Adagio
04 IV. Andante

No.2 in B-flat major
05 I. A tempo ordinario, e staccato
06 II. Allegro
07 III. Adagio, e staccato
08 IV. Allegro, ma non presto

No.3 in G minor
09 I. Adagio
10 II. Allegro
11 III. Adagio
12 IV. Allegro

No.4 in F major
13 I. Allegro
14 II. Andante
15 III. Adagio
16 IV. Allegro

No.5 in F major
17 I. Largetto
18 II. Allegro
19 III. Alla Siciliana
20 IV. Presto

No.6 in B-flat major
21 I. Andante allegro
22 II. Larghetto
23 III. Allegro moderato

IPB Image

代码
Exact Audio Copy V0.99 prebeta 4 from 23. January 2008

EAC 抓取日志文件从24. 八月 2009, 5:26

Richard Egarr / Handel: Organ Concertos Op.4

使用驱动器 :MATSHITADVD-RAM UJ-842 Adapter: 0 ID: 0

读取模式 : 保护
使用精确流 : 是
废除音频缓冲 : 否
使用 C2 指针 : 否

读取偏移校正 : 102
读取 Lead-In 和 Lead-Out : 否
用静音填充抓取中丢失偏移的采样 : 是
去除首尾静音块 : 否
在 CRC 计算中使用了空样本 : 是
已用接口 : 已安装外部 ASPI 接口

所用输出格式 : 内部 WAV 函数
样本格式 : 44.100 Hz;16 Bit;立体声

被抓轨 CD 的 TOC

音轨 | 开始 | 长度 | 起始扇区 | 结尾扇区
--------------------------------------------------
1 | 0:00.00 | 5:49.00 | 0 | 26174
2 | 5:49.00 | 5:38.18 | 26175 | 51542
3 | 11:27.18 | 1:10.74 | 51543 | 56866
4 | 12:38.17 | 3:26.22 | 56867 | 72338
5 | 16:04.39 | 0:46.02 | 72339 | 75790
6 | 16:50.41 | 4:59.30 | 75791 | 98245
7 | 21:49.71 | 0:48.10 | 98246 | 101855
8 | 22:38.06 | 3:14.17 | 101856 | 116422
9 | 25:52.23 | 3:24.33 | 116423 | 131755
10 | 29:16.56 | 3:42.20 | 131756 | 148425
11 | 32:59.01 | 0:54.01 | 148426 | 152476
12 | 33:53.02 | 2:02.12 | 152477 | 161638
13 | 35:55.14 | 4:21.31 | 161639 | 181244
14 | 40:16.45 | 5:21.42 | 181245 | 205361
15 | 45:38.12 | 1:10.15 | 205362 | 210626
16 | 46:48.27 | 3:33.09 | 210627 | 226610
17 | 50:21.36 | 2:00.30 | 226611 | 235640
18 | 52:21.66 | 2:16.37 | 235641 | 245877
19 | 54:38.28 | 1:19.11 | 245878 | 251813
20 | 55:57.39 | 2:09.38 | 251814 | 261526
21 | 58:07.02 | 7:14.25 | 261527 | 294101
22 | 65:21.27 | 3:33.18 | 294102 | 310094
23 | 68:54.45 | 2:38.21 | 310095 | 321965

范围状态及错误

已选择范围

文件名 D:\Emule\My Seeds\Richard Egarr - Handel Organ Concertos Op.4.wav

峰值电平 99.7 %
范围质量 100.0 %
复制 CRC 03948C87
复制成功

没有错误发生

AccurateRip 概要

音轨 1 已正确抓取 (确认 15) [9A27AC56]
音轨 2 已正确抓取 (确认 15) [1C8D8700]
音轨 3 已正确抓取 (确认 15) [0FAC5A89]
音轨 4 已正确抓取 (确认 15) [1D1639B8]
音轨 5 已正确抓取 (确认 15) [CF3A79B1]
音轨 6 已正确抓取 (确认 15) [F481B65E]
音轨 7 已正确抓取 (确认 15) [D47D570C]
音轨 8 已正确抓取 (确认 15) [AD748C5A]
音轨 9 已正确抓取 (确认 15) [8149A81E]
音轨 10 已正确抓取 (确认 15) [B6C78F38]
音轨 11 已正确抓取 (确认 15) [908C122E]
音轨 12 已正确抓取 (确认 15) [1031ADB4]
音轨 13 已正确抓取 (确认 15) [7EB2906A]
音轨 14 已正确抓取 (确认 15) [45D3A51F]
音轨 15 已正确抓取 (确认 15) [E1B562AA]
音轨 16 已正确抓取 (确认 15) [55708D4A]
音轨 17 已正确抓取 (确认 15) [507E10FA]
音轨 18 已正确抓取 (确认 15) [9D287C4D]
音轨 19 已正确抓取 (确认 15) [0C7CD794]
音轨 20 已正确抓取 (确认 15) [005D372F]
音轨 21 已正确抓取 (确认 15) [42D72FA2]
音轨 22 已正确抓取 (确认 15) [B4DA0909]
音轨 23 已正确抓取 (确认 15) [6C79B98F]

所有音轨已被精确抓取

状态报告结尾

正在读取……

这里是其它用户补充的资源(我也要补充):

暂无补充资源
正在加载,请稍等...

点击查看所有30网友评论

 

(?) [公告]留口水、评论相关规则 | [活动]每日签到 轻松领取电驴经验

    小贴士:
  1. 类似“顶”、“沙发”之类没有营养的文字,对勤劳贡献的楼主来说是令人沮丧的反馈信息。
  2. 提问之前请再仔细看一遍楼主的说明,或许是您遗漏了。
  3. 勿催片。请相信驴友们对分享是富有激情的,如果确有更新版本,您一定能搜索到。
  4. 请勿到处挖坑绊人、招贴广告。既占空间让人厌烦,又没人会搭理,于人于己都无利。
  5. 如果您发现自己的评论不见了,请参考以上4条。