v

您的位置:VeryCD动漫动漫周边

动漫资源事务区


《ラララ終末論》[C76][同人音楽][ササクレイション][sasakure.UK][FLAC]

  • 状态: 精华资源
  • 摘要:
    发行时间2009年08月15日
    对白语言日语
    文字语言日文
  • 时间: 2009/08/22 20:09:35 发布 | 2009/08/23 10:22:09 更新
  • 分类: 动漫  动漫周边 

UUranium

精华资源: 5

全部资源: 5

相关: 分享到新浪微博   转播到腾讯微博   分享到开心网   分享到人人   分享到QQ空间   订阅本资源RSS更新   美味书签  subtitle
该内容尚未提供权利证明,无法提供下载。
中文名ラララ終末論
资源格式FLAC
版本[C76][同人音楽][ササクレイション][sasakure.UK]
发行时间2009年08月15日
地区日本
对白语言日语
文字语言日文
简介

IPB Image

【Info】

ラララ終末論。

2009年8月15日(土)
コミックマーケット二日目
【东A 87a / ササクレイション】
1000円(通贩1300円・送料込)

【intro】

sasakure.UKがおくる、ボーカロイドアルバム・第二弾。
今回は今までのコンセプトとは打って変わって、ストーリーを机轴にしたアルバム制作を目指しました。
ラ ラ ラ 终 末 论 。 
このストーリーは、大きく2つのテーマから创られています。
「终末」
「终末」がそこに居る世界を、それぞれの主人公ごとに、それぞれの场面ごとに纺いだストーリーです。
主人公たちは何を见、何を感じ、そして何を謳うのでしょうか。
「フェアリ・ティル」
ファンタジーの中にある现実的要素を、自分の持つ大きなイメージ、価値観と络めてクロスオーバーさせてみました。
メタ现実観。絵本的な要素は、実在しないボーカロイドたちのイメージと少なからず共通する世界があるのではないかと思うのです。
ヒトではない存在(もの)が纺ぐうた。
はたして
意味は存在するのか?
理由は存在するのか?
このアルバムを聴いたときに、"彼の持つ答え"に少しでも近づくことができたならば-。


【List】

IPB Image

【Staff】

music :sasakure.UK
remix :baker(Tr.10)
   :黒ねこP(Tr.11)
   :cosMo(Tr.12)
jacket:茶ころ

【Link】
IPB Image
http://sasakure.bms.ms/rarara/rarara_s.htm


【附Unicode版Cue】
-v-大家都明白啥意思...

引用
REM DATE 2009
REM DISCID A10BFF0D
REM COMMENT "ExactAudioCopy v0.99pb4"
PERFORMER "ササクレイション"
TITLE "ラララ終末論。"
FILE "ササクレイション - ラララ終末論。.flac" WAVE
TRACK 01 AUDIO
TITLE "プロローグ?ラララ終末論。"
PERFORMER "sasakure.UK"
INDEX 01 00:00:00
TRACK 02 AUDIO
TITLE "妖精のシッポ -フェアリ?ティル-"
PERFORMER "sasakure.UK"
INDEX 01 01:07:23
TRACK 03 AUDIO
TITLE "しゅうまつがやってくる!"
PERFORMER "sasakure.UK"
INDEX 01 05:06:48
TRACK 04 AUDIO
TITLE "カムパネルラ"
PERFORMER "sasakure.UK"
INDEX 01 08:58:25
TRACK 05 AUDIO
TITLE "ぼくらの16bit戦争"
PERFORMER "sasakure.UK"
INDEX 01 13:11:40
TRACK 06 AUDIO
TITLE "突然、君が浮いた"
PERFORMER "sasakure.UK"
INDEX 01 17:09:10
TRACK 07 AUDIO
TITLE "ワンダーラスト"
PERFORMER "sasakure.UK"
INDEX 01 20:40:58
TRACK 08 AUDIO
TITLE "マリィの世界"
PERFORMER "sasakure.UK"
INDEX 01 24:05:55
TRACK 09 AUDIO
TITLE "*ハロー、プラネット。"
PERFORMER "sasakure.UK"
INDEX 01 29:12:10
TRACK 10 AUDIO
TITLE "モバイリ:センセーション (NTMG MIX) remixed by baker"
PERFORMER "sasakure.UK"
INDEX 01 34:14:46
TRACK 11 AUDIO
TITLE "ワンダーラスト (Piano REMIX) remixed by 黒ねこP"
PERFORMER "sasakure.UK"
INDEX 01 38:25:10
TRACK 12 AUDIO
TITLE "ニジイロ*アドベンチュア (STG-Remake) remixed by cosMo"
PERFORMER "sasakure.UK"
INDEX 01 42:06:65
TRACK 13 AUDIO
TITLE "エピローグ?ラララ終末論。"
PERFORMER "sasakure.UK"
INDEX 01 47:20:05

正在读取……

这里是其它用户补充的资源(我也要补充):

暂无补充资源
正在加载,请稍等...

点击查看所有16网友评论

 

(?) [公告]留口水、评论相关规则 | [活动]每日签到 轻松领取电驴经验

    小贴士:
  1. 类似“顶”、“沙发”之类没有营养的文字,对勤劳贡献的楼主来说是令人沮丧的反馈信息。
  2. 提问之前请再仔细看一遍楼主的说明,或许是您遗漏了。
  3. 勿催片。请相信驴友们对分享是富有激情的,如果确有更新版本,您一定能搜索到。
  4. 请勿到处挖坑绊人、招贴广告。既占空间让人厌烦,又没人会搭理,于人于己都无利。
  5. 如果您发现自己的评论不见了,请参考以上4条。