v

您的位置:VeryCD音乐古典音乐

音乐资源事务区


Elisabeth Schwarzkopf -《施瓦兹科普芙:莫扎特咏叹调录音》(Mozart Opera Arias)EMI Reference[APE]

  • 状态: 精华资源
  • 摘要:
    古典类型歌剧
    发行时间1990年
  • 时间: 2009/08/22 03:40:12 发布 | 2009/08/22 08:19:25 更新
  • 分类: 音乐  古典音乐 

韭菜爱毛豆

精华资源: 11

全部资源: 11

相关: 分享到新浪微博   转播到腾讯微博   分享到开心网   分享到人人   分享到QQ空间   订阅本资源RSS更新   美味书签  subtitle
该内容尚未提供权利证明,无法提供下载。
专辑英文名Mozart Opera Arias
专辑中文名施瓦兹科普芙:莫扎特咏叹调录音
古典类型歌剧
资源格式APE
版本EMI Reference
发行时间1990年
地区德国
语言英语
简介

IPB Image

作 曲 家:Beethoven
演 唱 者:Elisabeth Schwarzkopf
录音时间:1946-1952
录音地点:No.1 Studio, Abbey Road, London, BK
唱片公司:EMI
唱片编号:7 63708 2
录音制式:ADD
发行时间:1990
资源出处:原版CD抓轨(ape + cue + log)

专辑介绍
这是施瓦兹科普芙与EMI签约后发行的一批商业录音,都是单片发行的78转粗纹唱片,所以全是乐队专门灌录的选段。施瓦兹科普芙也相当卖力,费加罗、唐璜都是“一赶N”,所以能听到比较罕见的施版苏姗娜、凯鲁比诺等。

发布的此版是1990年西德出品的Reference系列。GROC系列发行过同样内容的CD,多了两轨(《女人心》的"L`amero. saro costant"和《唐璜》的"In quali eccessi... Mi tradì quell`alma ingrata")。封套如下:
IPB Image

为了凑篇幅,转发一篇施少奶奶的生平:
http://hi.baidu.com/qdmusic/blog/item/ca0b...fa6.html
伊丽莎白·施瓦尔茨科普芙(Elisabeth Schwarzkopf)

作者:韩斌 转贴自:20世纪歌唱大师


与意大利不同,德国并不以盛产女高音、男高音而闻名,除了那些著名的瓦格纳男女高音外,就少有成就卓著的歌唱家,特别是第二次世界大战结束之后这种情况尤其明显。然而,在这种凋零局面下却有一位杰出的女高音歌唱家脱颖而出,她就是施瓦茨科普夫,被卡拉扬誉为“最伟大的独唱家”的女高音。

伊丽莎白·施瓦茨科普夫1915年12月9日生于波兰的耶洛钦,童年时代施瓦茨科普夫就在波兰度过,并接受了初步的音乐教育。1932年,施瓦茨科普夫考人柏林高等音乐学校,专修声乐,同时还兼修钢琴、中提琴和理论作曲,在校期间施瓦茨科普夫即以好学、博闻而知名。1938年她以优异成绩从音乐学院毕业,并且获得国际联盟奖,这也是对她寒窗苦读的回报,同年,施瓦茨科普夫进人柏林国家歌剧院,初次职业登台的剧目是《帕西法尔》,她在其中扮演少女的角色。

很快,施瓦茨科普夫就得到了成名的机会,国家歌剧院安排她出演《阿里阿德涅在纳克索斯岛》中的策尔比娜,对于施瓦茨科普夫这样的新手而言,策尔比娜太富有挑战性了,也够难的,但是,施瓦茨科普夫还是获得了成功。不久,她又得到了一个讨巧的角色,饰演《艺术家的生涯》中的缪塞塔,一首《独自在街上》唱得轻松自如,赢得观众好评,施瓦茨科普夫初露锋芒。为了进一步提高自己的声乐技术,施瓦茨科普夫拜著名声乐教育家伊沃根为师,开始了艰苦的学习,大约从这时起,施瓦茨科普夫放弃了以前唱过的较偏重花腔的路子,转而投入对抒情角色的钻研。1942年,施瓦茨科普夫在柏林举行独唱音乐会,赢得著名指挥大师伯姆的赞赏,他马上邀请施瓦茨科普夫参加维也纳国家歌剧院的演出,施瓦茨科普夫从此声誉鹊起。1945年战争结束之后,施瓦茨科普夫因涉嫌战争期间与纳粹合作遭到禁演,后免于起诉。

1947年,施瓦茨科普夫恢复了舞台演出,并正式从花腔女高音转向抒情女高音。她先后在斯卡拉歌剧院、科文特花园剧院和萨尔茨堡音乐节演出,这段时间她扮演的《唐璜》中的埃尔薇拉广受好评,人们对她美妙的音色和优雅的舞台风范倾心不已。施瓦茨科普夫的音色温暖清澈,应当说是非常甜美,她很注重风格,表情特别细腻,分句完美,呼吸恰到好处,难怪挑剔的维也纳人、柏林人对她都佩服得五体投地。就在这段时间,施瓦茨科普夫结识了她的第二任丈夫——著名唱片制作人李格,后来,两人结婚。

1948-1949年演出季,施瓦茨科普夫作为客座演员参加了科文特花园剧院的演出,在英国,她在短短的一个演出季里演唱了苏珊娜、帕米娜、咪咪、吉尔达等角色,引起轰动。此时施瓦茨科普夫的声乐技巧又有了全新的提高,她演唱的这些角色大多不以夸张特殊的声音赢得成功,而是在自然平淡中见真情,她的演唱风格可以用细腻二字来概括,听来如春风拂面,使人惬意不已。

1951年,施瓦茨科普夫在维也纳首演了斯特拉文斯基的歌剧《浪子的历程》,她扮演剧中人物安妮,这是一个矛盾复杂的现代歌剧角色,很难对她的声音进行归类,此前,许多人担心施瓦茨科普夫无法胜任甚至会出丑,但首演的结果却令人刮目相看,施瓦茨科普夫的确与众不同。50年代,施瓦茨科普夫来到美国发展,在旧金山歌剧院和大都会歌剧院,施瓦茨科普夫均演唱了《玫瑰骑士》。施瓦茨科普夫的德语发音纯正,特别能阐发德语语音之美。除了正统的意大利、德国歌剧,她还是著名的轻歌剧歌唱家,她演唱的《蝙蝠》至今还是该剧历史上的经典名演之一。

60年代,施瓦茨科普夫热心投人到唱片录音工作中,她在唱片方面的成就当然得益于自己的丈夫——李格,李格为施瓦茨科普夫度身定作了许多脸炙人口的名作。 1961年,施瓦茨科普夫与萨瑟兰。卡普切里等人合作灌录了《唐璜》,担任指挥的是大师朱里尼,这是该剧录音历史上难以超越的经典时刻。两年后,施瓦茨科普夫与昔日提携自己的恩公伯姆合作,他们同样挑选了一部莫扎特作品——《女人心》,这次成功的合作为我们留下了一个完美的《女人心》版本,也为施瓦茨科普夫赢得了更多的荣誉。

施瓦茨科普夫的曲目范围相当广,这当然得益于她参与的大量录音工作。在20世纪声乐艺术家中施瓦茨科普夫的录音是非常出名的,而她的丈夫李格很能挖掘施瓦茨科普夫的潜力,使她的曲目范围不断拓展。在青年时代,施瓦茨科普夫的曲目集中在莫扎特,她的纯净嗓音适合唱一些略带花腔的角色,如《唐璜》中的埃尔薇拉和《费加罗婚礼》中的苏珊娜等。接近中年,她的戏路发生了一些变化,开始涉足抒情角色,如《图兰多》中的柳儿以及《霍夫曼的故事》中的三位女主角等等,这时,她的演唱技巧发生了变化,音量变大,呼吸也更深了,对高音的冲击力更强,我们可以从她演唱的《阿拉贝拉》等理查·施特劳斯歌剧中体会出这些变化。除了歌剧,施瓦茨科普夫还是一位卓有成就的艺术歌曲演唱家,她曾经演唱并灌录过包括舒曼、舒伯特、莫扎特和理查·施特劳斯在内的许多德奥作曲家的艺术歌曲。施瓦茨科普夫具有深厚的音乐素养,在柏林高等音乐学校期间,她就专修过两年的作曲,因此,对艺术歌曲的了解与剖析能力远远超过同时代的许多同行,她演唱的艺术歌曲不仅音色优美动听,更重要的是表情、分句贴合歌词内容和曲式特征,同样一首歌曲可以被她唱得变化多端、细致人微,难怪指挥大师卡拉扬要称赞施瓦茨科普夫为“最伟大的独唱家”。

1971年,施瓦茨科普夫到香港演出,这是香港历史上首次世界级歌唱大师举行演唱会,同时,施瓦茨科普夫在亚洲举行了多场音乐会。从1974-1976 年,施瓦茨科普夫在欧美各地举行系列告别演唱会,规模超过了当年吉利的系列告别演唱会,许多观众满含热泪听她演唱那些熟悉的曲调,他们明白世界乐坛又有一位大师将息影舞台。最后,她在伦敦完成告别演唱会,正式退休,告别了自己熟悉了四十年的声乐舞台。

晚年,施瓦茨科普夫致力于研究早期巴洛克声乐作品,还义务为丈夫李格到世界各地试听,发掘新的声乐人才。1990年12月9日是施瓦茨科普夫75岁生日,全欧洲开展了一系列庆贺活动,这一年8月,她在萨尔茨堡莫扎特音乐学院举办大师班,10月接受格拉斯哥大学名誉博士学位,11月到斯图加特出任沃尔夫国际声乐比赛评委,12月11日在斯图加特举行纪念音乐会。1995年,施瓦茨科普夫80岁生日时,许多音乐界名流齐集萨尔茨堡,在纪念演出中,主持人出人意料地播放了施瓦茨科普夫1939年演唱《卡门》时的片断,看到24岁时的施瓦茨科普夫,人们不禁激动地流下了热泪,大家全体起立鼓掌,向这位最伟大的独唱家致敬。

IPB Image



专辑曲目

Le nozze di Figaro
01. Atto I: "Non so più cosa son" (Cherubino)
02. Atto II: "Voi, che sapete" (Cherubino)
03. Atto IV: "Giunse alfin il momento . . . Deh, vieni, non tardar" (Susanna)
04. Atto II: "Porgi, amor" (La Comtessa)
05. Atto III: "Dove sono i bei momenti" (La Comtessa)
Don Giovanni
06. Atto I: "Batti, o bel Masetto" (Zerlina)
07. Atto II: "Vedrai, carino" (Zerlina)
08. Atto II: "Crudele? . . . Non mi dir" (Donna Anna)
Idomineo
09. Atto III: "Zeffiretti lusinghieri" (Ilia)
Die Entfürung aus dem Serail
10. Act II: 'Welche Kummer . . . Traurigkeit" (Konstanze)
11. Act II: "Martern aller Arten" (Konstanze)
Die Zauberflöte
12. Act II: "Ach, ich fühl's" (Pamina)

IPB Image

代码
Exact Audio Copy V0.99 prebeta 4 from 23. January 2008

EAC 抓取日志文件从20. 八月 2009, 18:16

Elisabeth Schwarzkopf / Mozart: Opera Arias

使用驱动器 :MATSHITADVD-RAM UJ-842 Adapter: 0 ID: 0

读取模式 : 保护
使用精确流 : 是
废除音频缓冲 : 否
使用 C2 指针 : 否

读取偏移校正 : 102
读取 Lead-In 和 Lead-Out : 否
用静音填充抓取中丢失偏移的采样 : 是
去除首尾静音块 : 否
在 CRC 计算中使用了空样本 : 是
已用接口 : 已安装外部 ASPI 接口

所用输出格式 : 内部 WAV 函数
样本格式 : 44.100 Hz;16 Bit;立体声

被抓轨 CD 的 TOC

音轨 | 开始 | 长度 | 起始扇区 | 结尾扇区
--------------------------------------------------
1 | 0:00.33 | 2:41.47 | 33 | 12154
2 | 2:42.05 | 2:59.00 | 12155 | 25579
3 | 5:41.05 | 5:22.03 | 25580 | 49732
4 | 11:03.08 | 4:13.72 | 49733 | 68779
5 | 15:17.05 | 4:54.28 | 68780 | 90857
6 | 20:11.33 | 3:31.47 | 90858 | 106729
7 | 23:43.05 | 3:33.73 | 106730 | 122777
8 | 27:17.03 | 7:21.25 | 122778 | 155877
9 | 34:38.28 | 5:54.00 | 155878 | 182427
10 | 40:32.28 | 9:09.42 | 182428 | 223644
11 | 49:41.70 | 8:59.23 | 223645 | 264092
12 | 58:41.18 | 4:26.30 | 264093 | 284072

范围状态及错误

已选择范围

文件名 D:\Emule\My Seeds\Elisabeth Schwarzkopf - Mozart Opera Arias.wav

峰值电平 95.2 %
范围质量 100.0 %
复制 CRC E7BC3329
复制成功

没有错误发生

AccurateRip 概要

音轨 1 数据库中未见
音轨 2 数据库中未见
音轨 3 数据库中未见
音轨 4 数据库中未见
音轨 5 数据库中未见
音轨 6 数据库中未见
音轨 7 数据库中未见
音轨 8 数据库中未见
音轨 9 数据库中未见
音轨 10 数据库中未见
音轨 11 数据库中未见
音轨 12 数据库中未见

没有任何音轨出现在 AccurateRip 数据库中

状态报告结尾

正在读取……

这里是其它用户补充的资源(我也要补充):

暂无补充资源
正在加载,请稍等...

点击查看所有40网友评论

 

(?) [公告]留口水、评论相关规则 | [活动]每日签到 轻松领取电驴经验

    小贴士:
  1. 类似“顶”、“沙发”之类没有营养的文字,对勤劳贡献的楼主来说是令人沮丧的反馈信息。
  2. 提问之前请再仔细看一遍楼主的说明,或许是您遗漏了。
  3. 勿催片。请相信驴友们对分享是富有激情的,如果确有更新版本,您一定能搜索到。
  4. 请勿到处挖坑绊人、招贴广告。既占空间让人厌烦,又没人会搭理,于人于己都无利。
  5. 如果您发现自己的评论不见了,请参考以上4条。