v

您的位置:VeryCD动漫动漫周边

动漫资源事务区


《东方霊宴谈》[C76][同人音楽][东方][舞风][附BK][TTA]

  • 状态: 精华资源
  • 摘要:
    发行时间2009年08月16日
    对白语言日语
    文字语言日文
  • 时间: 2009/08/21 19:13:29 发布 | 2009/08/22 15:37:58 更新
  • 分类: 动漫  动漫周边 

UUranium

精华资源: 5

全部资源: 5

相关: 分享到新浪微博   转播到腾讯微博   分享到开心网   分享到人人   分享到QQ空间   订阅本资源RSS更新   美味书签  subtitle
该内容尚未提供权利证明,无法提供下载。
中文名东方霊宴谈
别名东方霊宴谈
资源格式TTA
版本[C76][同人音楽][东方][舞风][附BK]
发行时间2009年08月16日
地区日本
对白语言日语
文字语言日文
简介

IPB Image

【Intro】

洋风なのか和风なのか分からない?
不思议な东方地霊殿ヴォーカルアレンジCD。
うん。とりあえずいつもの舞风(MAIKAZE)ですな。
何かおまけがはってそうな予感(笑
触れてはいけない秘密のお茶会とはなんぞ!?

【Info】

今年の夏コミは舞风(MAIKAZE)新作势揃い!
最后の第三弾は「地霊殿ヴォーカルアレンジCD」だぜ★
イベント価格:500円

【Staff】

・ アレンジャー・ジャケット:时音(TOKINE)
・ 歌:沙纱飞鸟
・ 歌/歌词:御堂くすは
・ 歌词/コーラス:怜歌

【List】

・ 赤猫宅急便        (原曲:廃狱ララバイ)
・ 纯白の花~アネモネ~   (原曲:少女さとり~ 3rd eye/死体旅行~ Be of good cheer!)
・ 赤猫宅急便        (カラオケ)
・ 纯白の花~アネモネ~   (カラオケ)
・ ???

【HP】

http://maikaze.com/bana.jpg
http://maikaze.com/index.html[img]


【附Unicode版Cue】

引用
REM GENRE Game
REM DATE 2009
REM DISCID 370A8805
REM COMMENT "ExactAudioCopy v0.99pb5"
PERFORMER "舞风"
TITLE "东方霊宴谈"
FILE "东方霊宴谈.TTA" WAVE
TRACK 01 AUDIO
TITLE "赤猫宅急便"
PERFORMER "沙纱飞鸟"
INDEX 01 00:00:00
TRACK 02 AUDIO
TITLE "纯白の花~アネモネ~"
PERFORMER "御堂くすは"
INDEX 00 04:19:18
INDEX 01 04:21:18
TRACK 03 AUDIO
TITLE "赤猫宅急便(カラオケ)"
PERFORMER "时音"
INDEX 00 09:20:61
INDEX 01 09:22:61
TRACK 04 AUDIO
TITLE "纯白の花~アネモネ~(カラオケ)"
PERFORMER "时音"
INDEX 00 13:42:04
INDEX 01 13:44:04
TRACK 05 AUDIO
TITLE "SecretTrack"
PERFORMER "怜歌/御堂くすは/TOKINE"
INDEX 00 18:43:47
INDEX 01 18:45:47

正在读取……

这里是其它用户补充的资源(我也要补充):

暂无补充资源
正在加载,请稍等...

点击查看所有15网友评论

 

(?) [公告]留口水、评论相关规则 | [活动]每日签到 轻松领取电驴经验

    小贴士:
  1. 类似“顶”、“沙发”之类没有营养的文字,对勤劳贡献的楼主来说是令人沮丧的反馈信息。
  2. 提问之前请再仔细看一遍楼主的说明,或许是您遗漏了。
  3. 勿催片。请相信驴友们对分享是富有激情的,如果确有更新版本,您一定能搜索到。
  4. 请勿到处挖坑绊人、招贴广告。既占空间让人厌烦,又没人会搭理,于人于己都无利。
  5. 如果您发现自己的评论不见了,请参考以上4条。