v

您的位置:VeryCD动漫动漫周边

动漫资源事务区


《風萃めのシャルモ》[C76][東方][k-waves LAB][同人音乐][附BK][FLAC]

  • 状态: 精华资源
  • 摘要:
    发行时间2009年08月15日
    对白语言日语
    文字语言日文
  • 时间: 2009/08/21 12:28:13 发布 | 2009/08/24 16:34:29 更新
  • 分类: 动漫  动漫周边 

UUranium

精华资源: 5

全部资源: 5

相关: 分享到新浪微博   转播到腾讯微博   分享到开心网   分享到人人   分享到QQ空间   订阅本资源RSS更新   美味书签  subtitle
该内容尚未提供权利证明,无法提供下载。
中文名風萃めのシャルモ
别名风萃めのシャルモ
资源格式FLAC
版本[C76][東方][k-waves LAB][同人音乐][附BK]
发行时间2009年08月15日
地区日本
对白语言日语
文字语言日文
简介

IPB Image

引用
BK已经附上......又重新拖了一个TTA版本的,这回算是有BK了-v-,一共6张


【Info】

http://kou-ogata.net/kaze/k_cd.jpg
风萃めのシャルモ/k-waves LAB

【Intro】


前作「幻想郷ポポルカント」より约半年、
「ニコニコ动画」で活跃中の「どこぞの笛吹き」こと
Kou Ogataによる、东方アレンジ楽曲集第2弾!
「ニコニコ动画」で発表している楽曲音源はもちろん、
未発表曲を含む充実の内容でお届けします!


【颁布情报】

コミックマーケット76より颁布を开始します。
★日时:2009年8月15日(土)
★スペース:东地区 "A" ブロック 62b
★サークル名:k-waves LAB
★イベント颁布価格:700円


【Staff】


★Original Music / ZUN(上海アリス幻乐団) ・ あきやまうに(うにぼく)
★Arrangement & Musical performance / Kou Ogata( k-waves LAB)
★Illustration & Design / Atsuko.K(鶉画帖) ・ R.Higuchi
★Movie edit & Animation / Seiji.Y(Mountain-hands)


【Track list】

1.シンデレラケージ
2.恋色マスタースパーク
3.天狗が见ている
4.フォールオブフォール
5.妖怪の山
6.御柱の墓场
7.少女が见た日本の原风景
8.东方萃梦想/砕月


【Link】


http://kou-ogata.net/kaze/banner_k_l.jpg
http://kou-ogata.net/kaze.html


附:Unicode版Cue文件
引用
REM DATE 2009
REM DISCID 4E085508
REM COMMENT "ExactAudioCopy v0.99pb4"
PERFORMER "k-waves LAB"
TITLE "风萃めのシャルモ"
FILE "k-waves LAB - 风萃めのシャルモ.flac" WAVE
TRACK 01 AUDIO
TITLE "シンデレラケージ"
PERFORMER "k-waves LAB"
INDEX 01 00:00:00
TRACK 02 AUDIO
TITLE "恋色マスタースパーク"
PERFORMER "k-waves LAB"
INDEX 00 03:33:63
INDEX 01 03:34:62
TRACK 03 AUDIO
TITLE "天狗が见ている"
PERFORMER "k-waves LAB"
INDEX 00 08:41:05
INDEX 01 08:42:06
TRACK 04 AUDIO
TITLE "フォールオブフォール"
PERFORMER "k-waves LAB"
INDEX 00 13:27:62
INDEX 01 13:28:54
TRACK 05 AUDIO
TITLE "妖怪の山"
PERFORMER "k-waves LAB"
INDEX 00 19:39:56
INDEX 01 19:40:58
TRACK 06 AUDIO
TITLE "御柱の墓场"
PERFORMER "k-waves LAB"
INDEX 00 22:47:12
INDEX 01 22:48:07
TRACK 07 AUDIO
TITLE "少女が见た日本の原风景"
PERFORMER "k-waves LAB"
INDEX 00 25:17:51
INDEX 01 25:18:52
TRACK 08 AUDIO
TITLE "东方萃梦想/砕月"
PERFORMER "k-waves LAB"
INDEX 00 32:19:49
INDEX 01 32:20:46

正在读取……

这里是其它用户补充的资源(我也要补充):

暂无补充资源
正在加载,请稍等...

点击查看所有33网友评论

 

(?) [公告]留口水、评论相关规则 | [活动]每日签到 轻松领取电驴经验

    小贴士:
  1. 类似“顶”、“沙发”之类没有营养的文字,对勤劳贡献的楼主来说是令人沮丧的反馈信息。
  2. 提问之前请再仔细看一遍楼主的说明,或许是您遗漏了。
  3. 勿催片。请相信驴友们对分享是富有激情的,如果确有更新版本,您一定能搜索到。
  4. 请勿到处挖坑绊人、招贴广告。既占空间让人厌烦,又没人会搭理,于人于己都无利。
  5. 如果您发现自己的评论不见了,请参考以上4条。