v

您的位置:VeryCD音乐欧美音乐

音乐资源事务区


Joss Stone -《Introducing Joss Stone》[FLAC]

  • 状态: 精华资源
  • 摘要:
    音乐风格蓝调
    发行时间2007年3月20日
    地区美国
    语言英语
  • 时间: 2009/08/17 20:08:53 发布 | 2009/08/17 20:45:07 更新
  • 分类: 音乐  欧美音乐 

Jeioc

精华资源: 25

全部资源: 35

相关: 分享到新浪微博   转播到腾讯微博   分享到开心网   分享到人人   分享到QQ空间   订阅本资源RSS更新   美味书签  subtitle
该内容尚未提供权利证明,无法提供下载。
专辑英文名Introducing Joss Stone
歌手Joss Stone
音乐风格蓝调
资源格式FLAC
发行时间2007年3月20日
地区美国
语言英语
简介

IPB Image

压缩码率:916kbps
发行公司:EMI


内容介绍:

白人、19岁、唱灵魂乐、有个性的小女生,牡羊座(1987年4月11日),出生于英国、走红于美国的乔丝史东,初见她那甜美、略带腼腆的阳光笑容和及肩飘逸的金色长发,实在很难让人和她那有力丰富、满萦灵魂乐感的Powerful嗓音、唱出可能是21世纪最好的old-school、南方风情的灵魂乐联想在一起。可能是当今乐坛最优秀的白人灵魂&爵士女歌手!

她的声音让汤姆克鲁斯惊艳不已,她的天赋造成全球热烈回响-乔丝史东首张专辑【片刻心灵】缔造超过250万张的惊人销售,不但跃登Billboard热门潜力榜的后座,晋升英国专辑金榜TOP 4,并在全球13个国家打进TOP 10,其中美国、英国、加拿大、德国、奥地利、纽西兰等国更获得白金、金唱片不等的销售肯定。歌曲则陆续出现在“白宫风云”、“急诊室的春天”等热门影集中。她的魅力一发不可收拾,从曼哈顿Joe’s Pub红到英国Glastonbury音乐祭,最后荣登2004年VH1频道年度音乐盛事"VH1 Divas"演唱会初试啼声,与各家天后飙歌竞唱,博得纽约时报、洛杉矶时报、时人杂志、滚石杂志等全球乐评的满堂采!(转)

 也许说来让人觉得不可思议,这张被喻为"可能是21世纪最好的old-school、roof- raising、南方风情的灵魂乐作品”的“The Soul Sessions片刻心灵”,竟是来自Joss Stone乔丝史东这个来自英国的16岁小女生的首张专辑。乔丝史东1987年4月11日出生于英格兰的Dover,她在四个兄弟姊妹中排行老三。 2001年,乔丝14岁,她参加了BBC电视台选秀节目Star for A Night的试演。丰富的活力嗓音和混然天成的有力音感,立即获得了曾发掘Hanson "Mmm Bop"及Baha Men "Who Let the Dogs Out"专辑的S-Curve唱片的股东兼执行长Steve Greenberg的青睐。“乔丝不止拥有天生的好嗓音,同时她也拥有为传统曲目注入个人风格的能力。不止是模仿,她更能投注所有的热情和感情,改变并诠释这些歌。这个14岁女孩所带来的震撼,那种感觉很微妙。”
  在这张专辑中,乔丝特色独具的演出了包括Dirty Man、Super Duper Love等8首复古灵魂的全新作品,及All The King's Horses、For The Love Of You等两耳熟能详的经典之作;其中还包括了由John Sebastian重新演绎的I Had a Dream及White Stripes的成员Jack White跨刀的Fell in Love With a Boy。另外,来自The Roots的乐器演奏及Angie Stone和传奇人物Betty Wright的完美合声,则使得专辑的人声表现地更加丰富。乔丝用燃烧般的热情与天赋的好音感来诠释这些音符,她愠而不火,将十首歌曲时而中规中矩、时而假音拔高地完美呈现出来。聆听乔丝史东,你听到的是她用心演唱的曲子,而不是造作”制造”出来的声音。专辑中的十首歌曲,其中有六首是在迈阿密的录音室中以两天的时间现场录制完成的。同时来自70年代最早演变和形成的The Miami Sound团体、长久以来却被忽略的美国黑人音乐家们,亦在乔丝史东的“心灵片刻”闪着无与伦比的光彩。
Joss Stone其人
  她的R&B比任何一位台人歌手更具说服力 --- PEOPLE时人杂志
  她以惊人速度迅速走红大街小巷 --- NEW YORK TIMES纽约时报
  白人、17岁、唱灵魂乐、有个性的小女生,1987年4月11日出生于英国、走红于美国的乔丝史东,初见她那甜美、略带腼腆的阳光笑容,和及肩飘逸的金色长发,实在很难让人和她那有力丰富、满萦灵魂乐感的Powerful嗓音联想在一起。
  向来上节目只谈电影的汤姆克鲁斯,日前应邀上美国福斯电视台“艾伦脱口秀Ellen Show”节目,一开场便主动向全场观众询问:“你们听过乔丝史东吗?那张“片刻心灵”专辑,我最近一直在听这张!” ;向来以提携晚辈不遗余力着称的艾尔顿强,在与BLUE对唱过“抱歉太难”、受杂志之邀专访过酷玩乐团主唱克里斯马汀之后,居然在一次接受《Interview》杂志专访时,点名一定要与乔丝史东搭档一块儿受访;史汀也曾在伦敦皇家亚伯厅的演唱会上,邀请乔丝史东一块儿开场……

个人十分喜欢她的声音.初中的时候听过了之后就余音绕梁.现在大学了,突然发现好久没有听她的歌了.于是再次回顾,果然是一股清泉,一股来自神灵的力量直入灵魂深处.真的好听.
电驴上有MP3版本.不过是低音质的版本.我想这种歌曲没有无损怎么行?

于是,无损来了!

Ps.不允许TracyHaye下载...呵呵

British soul singer and songwriter Joss Stone's third album, "Introducing Joss Stone," is an electrifying mix of warm vintage soul, '70s-style R&B, Motown girl-group harmonies, and hip-hop grooves. The album is the one that Stone describes as "truly me. That's why I'm calling it Introducing Joss Stone," she says. "These are my words, and this is who I am as an artist." Knowing she wanted to write the album alone, Stone decamped to Barbados in April to come up with lyrics. She stayed for several months before flying to the Bahamas to hook up with her main musical collaborator and producer Raphael Saadiq (known for his work with D'Angelo, The Roots, and Macy Gray). Stone and Saadiq spent two months recording in the Bahamas, and then mixed it at the legendary Electric Lady Studios in New York City.

Other musical collaborators include rapper/singer/songwriter and producer Novel, who is the grandson of soul legend Solomon Burke and has written songs for Kelis and India.Arie, as well as Beau Dozier, son of Motown legend Lamont Dozier, whom she wrote with on her last album, 2004's gold-certified Mind, Body & Soul. The album also features guest vocal appearances by the rapper Common on "Tell Me What We're Going to Do," and reclusive singer Lauryn Hill, who lends a rap to the languid Fugees-inspired track "Music."


引用
Exact Audio Copy V0.99 prebeta 4 from 23. January 2008

EAC extraction logfile from 23. July 2009, 15:33

Joss Stone / Introducing ... Joss Stone

Used drive : HL-DT-STBD-RE GGW-H20L Adapter: 0 ID: 2

Read mode : Secure
Utilize accurate stream : Yes
Defeat audio cache : Yes
Make use of C2 pointers : No

Read offset correction : 667
Overread into Lead-In and Lead-Out : No
Fill up missing offset samples with silence : Yes
Delete leading and trailing silent blocks : No
Null samples used in CRC calculations : Yes
Used interface : Installed external ASPI interface
Gap handling : Appended to previous track

Used output format : User Defined Encoder
Selected bitrate : 1024 kBit/s
Quality : High
Add ID3 tag : No
Command line compressor : C:\Program Files\Exact Audio Copy\Flac\flac.exe
Additional command line options : -8 -V -T "ARTIST=%a" -T "TITLE=%t" -T "ALBUM=%g" -T "DATE=%y" -T "TRACKNUMBER=%n" -T "GENRE=%m" -T "COMMENT=EAC FLAC - 8 - oan" %s


TOC of the extracted CD

Track | Start | Length | Start sector | End sector
---------------------------------------------------------
1 | 0:00.00 | 0:35.11 | 0 | 2635
2 | 0:35.11 | 3:15.72 | 2636 | 17332
3 | 3:51.08 | 3:16.46 | 17333 | 32078
4 | 7:07.54 | 2:49.14 | 32079 | 44767
5 | 9:56.68 | 4:22.56 | 44768 | 64473
6 | 14:19.49 | 2:58.04 | 64474 | 77827
7 | 17:17.53 | 3:41.59 | 77828 | 94461
8 | 20:59.37 | 2:52.35 | 94462 | 107396
9 | 23:51.72 | 3:41.11 | 107397 | 123982
10 | 27:33.08 | 3:24.71 | 123983 | 139353
11 | 30:58.04 | 4:15.29 | 139354 | 158507
12 | 35:13.33 | 4:35.27 | 158508 | 179159
13 | 39:48.60 | 4:24.68 | 179160 | 199027
14 | 44:13.53 | 3:48.12 | 199028 | 216139


Track 1

Filename C:\oan\01 - Change (Vinnie Jones Intro).wav

Pre-gap length 0:00:02.00

Peak level 65.0 %
Track quality 100.0 %
Test CRC 47A21693
Copy CRC 47A21693
Accurately ripped (confidence 188) [BA38B39D]
Copy OK

Track 2

Filename C:\oan\02 - Girl They Won't Believe It.wav

Peak level 99.8 %
Track quality 100.0 %
Test CRC 869C4052
Copy CRC 869C4052
Accurately ripped (confidence 198) [8DD49044]
Copy OK

Track 3

Filename C:\oan\03 - Headturner.wav

Peak level 99.9 %
Track quality 100.0 %
Test CRC 8CACA008
Copy CRC 8CACA008
Accurately ripped (confidence 198) [9C187753]
Copy OK

Track 4

Filename C:\oan\04 - Tell Me 'Bout It.wav

Peak level 99.8 %
Track quality 100.0 %
Test CRC 899A0845
Copy CRC 899A0845
Accurately ripped (confidence 198) [E2343935]
Copy OK

Track 5

Filename C:\oan\05 - Tell Me What We're Gonna Do Now (feat. Common).wav

Peak level 99.8 %
Track quality 100.0 %
Test CRC 4E061C68
Copy CRC 4E061C68
Accurately ripped (confidence 198) [39D84539]
Copy OK

Track 6

Filename C:\oan\06 - Put Your Hands On Me.wav

Peak level 99.8 %
Track quality 100.0 %
Test CRC 9EFD962F
Copy CRC 9EFD962F
Accurately ripped (confidence 195) [C3513F98]
Copy OK

Track 7

Filename C:\oan\07 - Music (feat. Lauryn Hill).wav

Peak level 99.8 %
Track quality 100.0 %
Test CRC C530F9F2
Copy CRC C530F9F2
Accurately ripped (confidence 195) [A186232B]
Copy OK

Track 8

Filename C:\oan\08 - Arms Of My Baby.wav

Peak level 99.9 %
Track quality 100.0 %
Test CRC 0B4CA727
Copy CRC 0B4CA727
Accurately ripped (confidence 195) [D4AC0D86]
Copy OK

Track 9

Filename C:\oan\09 - Bad Habit.wav

Peak level 99.8 %
Track quality 99.9 %
Test CRC 4FF352E3
Copy CRC 4FF352E3
Accurately ripped (confidence 197) [3FBE61C3]
Copy OK

Track 10

Filename C:\oan\10 - Proper Nice.wav

Peak level 99.8 %
Track quality 100.0 %
Test CRC A9FB9569
Copy CRC A9FB9569
Accurately ripped (confidence 195) [EA9E1C2C]
Copy OK

Track 11

Filename C:\oan\11 - Bruised But Not Broken.wav

Peak level 99.8 %
Track quality 100.0 %
Test CRC 0B8A483A
Copy CRC 0B8A483A
Accurately ripped (confidence 195) [26B765EA]
Copy OK

Track 12

Filename C:\oan\12 - Baby Baby Baby.wav

Peak level 99.9 %
Track quality 100.0 %
Test CRC 607D77C3
Copy CRC 607D77C3
Accurately ripped (confidence 195) [28812670]
Copy OK

Track 13

Filename C:\oan\13 - What Were We Thinking.wav

Peak level 99.8 %
Track quality 100.0 %
Test CRC 2423F967
Copy CRC 2423F967
Accurately ripped (confidence 196) [A518B2B9]
Copy OK

Track 14

Filename C:\oan\14 - Music Outro.wav

Peak level 99.8 %
Track quality 99.9 %
Test CRC 987F93CD
Copy CRC 987F93CD
Accurately ripped (confidence 192) [74255DE6]
Copy OK


All tracks accurately ripped

No errors occurred

End of status report






IPB Image
IPB Image



专辑曲目

01.Change (Vinnie Jones Intro)
02.Girl They Won't Believe It
03.Headturner
04.Tell Me 'Bout It (Album Version)
05.Tell Me What We're Gonna Do Now (Album Version)
06.Put Your Hands On Me
07.Music
08.Arms Of My Baby
09.Bad Habit
10.Proper Nice
11.Bruised But Not Broken
12.Baby Baby Baby
13.What Were We Thinking
14.Music Outro

正在读取……

这里是其它用户补充的资源(我也要补充):

暂无补充资源
正在加载,请稍等...

点击查看所有54网友评论

 

(?) [公告]留口水、评论相关规则 | [活动]每日签到 轻松领取电驴经验

    小贴士:
  1. 类似“顶”、“沙发”之类没有营养的文字,对勤劳贡献的楼主来说是令人沮丧的反馈信息。
  2. 提问之前请再仔细看一遍楼主的说明,或许是您遗漏了。
  3. 勿催片。请相信驴友们对分享是富有激情的,如果确有更新版本,您一定能搜索到。
  4. 请勿到处挖坑绊人、招贴广告。既占空间让人厌烦,又没人会搭理,于人于己都无利。
  5. 如果您发现自己的评论不见了,请参考以上4条。