v

您的位置:VeryCD动漫动漫周边

动漫资源事务区


《東方サマーバケーション》[C76][Innocent Key][東方][同人音楽][附BK][TAK]

  • 状态: 精华资源
  • 摘要:
    发行时间2009年8月15日
    对白语言日语
    文字语言日文
  • 时间: 2009/08/17 03:24:54 发布 | 2009/08/17 15:47:06 更新
  • 分类: 动漫  动漫周边 

[该用户已屏蔽]

精华资源: 97

全部资源: 100

相关: 分享到新浪微博   转播到腾讯微博   分享到开心网   分享到人人   分享到QQ空间   订阅本资源RSS更新   美味书签  subtitle
该内容尚未提供权利证明,无法提供下载。
中文名東方サマーバケーション
资源格式TAK
版本[C76][Innocent Key][東方][同人音楽][附BK]
发行时间2009年8月15日
地区日本
对白语言日语
文字语言日文
简介

IPB Image

【专辑介绍】

『 東方サマーバケーション』

http://i107.photobucket.com/albums/m287/ghxx133/6000600090825.jpg

■発売日 : 2009/08/15
■分类 : 音楽CD
■価格 : 1,365円(税込)
■収録 : 全16曲
■発売元 : Innocent Key
■ジャンル : 東方Project
■年齢制限 : 一般
■商品コード :2500020094815

【アーティスト/ キャスト】

Produced:
溝口ゆうま / gak
Innocent Key gak:
(Lyric, Arrange) / yohine (Arrange, Mixed, Mastered) / 溝口ゆうま (Vocal, Lyric, Arrange & Guitar, Mixed) / 樹 詩音 (Vocal) / ココ (Vocal) / 大瀬良あい (Vocal)
Guest Arrange, Lyric ELEMENTAS:
(A1) / 柏木るざりん (有限会社るざりん) / スバコ (Soy-SOUTH)
Guest Musician sou:
(Bass/ Sound CYCLONE) / 海渡 (Guitar/ Soy-SOUTH) / syu (Bass/ Soy-SOUTH) /
Guest Vocal miko:
(Alternative ending) / 小宮真央 (Asterisk@) / ℃iel (Capriccioso Cantabile) / JUNCA (てつXねこ) / 梨本悠里 / 真野 紫 / shihori (A1) / Nimo / しゃばだば (Sound CYCLONE)
Jacket Illustration:
HAM (Points)
Character Graphic Illustration:
一葉一茶
Comic:
水瀬 修 (DROP DEAD!!) / 都来りね&すぺらんかー (Siestail) / ゆきかわ。
Art Direction, Design:
水瀬 修(DROP DEAD!!)

「内容」
「見える…!自分にも妖精さんがっ…!」

夏だ!水着だ!自宅警備だ!?
Innocent Keyがお贈りする、東方ProjectアレンジCD
「東方サマーバケーション」

華やかに咲く花か、はたまたひっそり生えるシダ植物か…
極上の夏を満喫するためのバイブルに是非どうぞ!

東方サマーバケーションのブックレットは一葉一茶さんによる楽しいイラストつき。ボーカル曲にあわせたイメージイラストを書き下ろしていただきました。さらに水瀬 修さん、都来りねさん&すぺらんかーさん、ゆきかわ。さんによる4コマ漫画も同時に収録しています。
以下はサンプルになります。全16Pフルカラー仕様です。

【收录曲目】

TRACK 01 AUDIO
TITLE "最高の夏がまってるから"
PERFORMER "℃iel、JUNCA、しゃばだば、大瀬良あい、miko"
INDEX 01 00:00:00

TRACK 02 AUDIO
TITLE "Summer Vibes"
PERFORMER "Shihori"
INDEX 01 04:26:36

TRACK 03 AUDIO
TITLE "幻想ビキニ ~悪戯開始だ!三月精!"
PERFORMER "ココ、小宮真央、梨本悠里、miko、大瀬良あい、Nimo"
INDEX 01 08:40:45

TRACK 04 AUDIO
TITLE "残念な夏休み"
PERFORMER "JUNCA、ココ"
INDEX 01 15:11:50

TRACK 05 AUDIO
TITLE "橙のきもだめし"
PERFORMER "ココ、梨本悠里、溝口ゆうま"
INDEX 01 18:50:54

TRACK 06 AUDIO
TITLE "永遠の夏"
PERFORMER "℃iel"
INDEX 01 23:15:52

TRACK 07 AUDIO
TITLE "モスキート★ラブ"
PERFORMER "℃iel、ココ"
INDEX 01 26:58:66

TRACK 08 AUDIO
TITLE "夏祭りの夜"
PERFORMER "真野紫"
INDEX 01 30:46:12

TRACK 09 AUDIO
TITLE "晩夏のビーチ ~Dive into the sea!"
PERFORMER "ココ、大瀬良あい"
INDEX 01 35:58:55

TRACK 10 AUDIO
TITLE "風鈴"
PERFORMER "yohine"
INDEX 01 41:08:66

TRACK 11 AUDIO
TITLE "宿題が終わらないっ!"
PERFORMER "梨本悠里、JUNCA、小宮真央、樹詩音、大瀬良あい"
INDEX 01 43:09:36

TRACK 12 AUDIO
TITLE "幻想ビキニ ~悪戯開始だ!三月精!"
PERFORMER "yohine"
INDEX 01 47:30:35

TRACK 13 AUDIO
TITLE "晩夏のビーチ ~Dive into the sea!"
PERFORMER "溝口ゆうま"
INDEX 01 54:01:16

TRACK 14 AUDIO
TITLE "宿題が終わらないっ!"
PERFORMER "溝口ゆうま"
INDEX 01 59:11:27

TRACK 15 AUDIO
TITLE "鳥ならおまかせ焼き鳥屋"
PERFORMER "yohine"
INDEX 01 63:30:74

TRACK 16 AUDIO
TITLE "幾年創生幻想曲"
PERFORMER "yohine"
INDEX 01 67:26:09


【官方網站】
http://i107.photobucket.com/albums/m287/ghxx133/banner.gif

正在读取……

这里是其它用户补充的资源(我也要补充):

暂无补充资源
正在加载,请稍等...

点击查看所有32网友评论

 

(?) [公告]留口水、评论相关规则 | [活动]每日签到 轻松领取电驴经验

    小贴士:
  1. 类似“顶”、“沙发”之类没有营养的文字,对勤劳贡献的楼主来说是令人沮丧的反馈信息。
  2. 提问之前请再仔细看一遍楼主的说明,或许是您遗漏了。
  3. 勿催片。请相信驴友们对分享是富有激情的,如果确有更新版本,您一定能搜索到。
  4. 请勿到处挖坑绊人、招贴广告。既占空间让人厌烦,又没人会搭理,于人于己都无利。
  5. 如果您发现自己的评论不见了,请参考以上4条。