v

您的位置:VeryCD教育计算机


《制作高清MV》[压缩包]

  • 状态: 精华资源
  • 摘要:
    发行日期2009年
    对白语言普通话
    文字语言简体中文
  • 时间: 2009/08/08 11:49:48 发布 | 2009/08/09 17:33:54 更新
  • 分类: 教育  计算机 

叶叶声声是别离

精华资源: 8

全部资源: 9

相关: 分享到新浪微博   转播到腾讯微博   分享到开心网   分享到人人   分享到QQ空间   订阅本资源RSS更新   美味书签  subtitle
该内容尚未提供权利证明,无法提供下载。
中文名制作高清MV
资源格式压缩包
发行日期2009年
地区大陆
对白语言普通话
文字语言简体中文
简介

IPB Image
【视频简介】
由于很多人看了我发的仙剑全剧情MV的帖子后,向我提出了如何制作MV的问题,所以发布此教程,希望可以帮助大家去完成自己的MV作品。

本视频录制了制作高清MV的全过程。

视频信息:(以其中一个视频为例)

General
Complete name : 教程录制.avi
Format : AVI
Format/Info : Audio Video Interleave
File size : 14.0 MiB
Duration : 1mn 52s
Overall bit rate : 1 039 Kbps
Writing library : Boilsoft Joiner build 2411/release

Video
Format : MPEG-4 Visual
Format profile : Streaming Video@L1
Format settings, BVOP : Yes
Format settings, QPel : No
Format settings, GMC : No warppoints
Format settings, Matrix : Default (H.263)
Muxing mode : Packed bitstream
Codec ID : XVID
Codec ID/Hint : XviD
Duration : 1mn 52s
Bit rate : 851 Kbps
Width : 1 024 pixels
Height : 768 pixels
Display aspect ratio : 4/3
Frame rate : 30.000 fps
Resolution : 24 bits
Colorimetry : 4:2:0
Scan type : Progressive
Bits/(Pixel*Frame) : 0.036
Stream size : 11.4 MiB (82%)
Writing library : XviD 1.2.1 (UTC 2008-12-04)

Audio
Format : PCM
Format settings, Endianness : Little
Format settings, Sign : Unsigned
Codec ID : 1
Codec ID/Hint : Microsoft
Duration : 1mn 52s
Bit rate mode : Constant
Bit rate : 176.4 Kbps
Channel(s) : 1 channel
Sampling rate : 11.025 KHz
Resolution : 16 bits
Stream size : 2.37 MiB (17%)
Interleave, duration : 33 ms (1.00 video frame)
Interleave, preload duration : 499 ms

制作者:chihai

【压缩包截图】


IPB Image

IPB Image

IPB Image


转载请注明作者与出处!谢谢!
__________________________________________________________________________________________________________________________________________

正在读取……

这里是其它用户补充的资源(我也要补充):

暂无补充资源
正在加载,请稍等...

点击查看所有56网友评论

 

(?) [公告]留口水、评论相关规则 | [活动]每日签到 轻松领取电驴经验

    小贴士:
  1. 类似“顶”、“沙发”之类没有营养的文字,对勤劳贡献的楼主来说是令人沮丧的反馈信息。
  2. 提问之前请再仔细看一遍楼主的说明,或许是您遗漏了。
  3. 勿催片。请相信驴友们对分享是富有激情的,如果确有更新版本,您一定能搜索到。
  4. 请勿到处挖坑绊人、招贴广告。既占空间让人厌烦,又没人会搭理,于人于己都无利。
  5. 如果您发现自己的评论不见了,请参考以上4条。