v

您的位置:VeryCD音乐欧美音乐

音乐资源事务区


Gianna Nannini -《giannadream solo sogni sono veri 》(最真的梦)[FLAC]

  • 状态: 精华资源
  • 摘要:
    音乐风格摇滚
    发行时间2009年5月22日
    地区意大利
    语言英语
  • 时间: 2009/08/02 22:28:53 发布 | 2009/08/03 12:32:32 更新
  • 分类: 音乐  欧美音乐 

czp568

精华资源: 343

全部资源: 344

相关: 分享到新浪微博   转播到腾讯微博   分享到开心网   分享到人人   分享到QQ空间   订阅本资源RSS更新   美味书签  subtitle
该内容尚未提供权利证明,无法提供下载。
专辑英文名giannadream solo sogni sono veri
专辑中文名最真的梦
音乐风格摇滚
资源格式FLAC
发行时间2009年5月22日
地区意大利
语言英语
简介

IPB Image

专辑简介:

无可取代义大利摇滚第一夫人09年最新专辑
◎直奔义大利榜亚军席次,快速累积金唱片销售,协同金牌制作大师Will Malone(Dido、Oasis、Kylie Minogue)齐力操盘
◎骨子里透著反叛和自信,保留自身狂野本性的同时,也注入最细腻感性的气质

可说是义大利摇滚第一夫人的Gianna Nannini,已过半百的年纪,却依然充满丰沛精力和旺盛创作能力,风光站上国际舞台,享受来自世界各地的掌声。骨子里透著反叛和自信,19岁离家到米兰闯荡,攻读作曲与哲学学位。1976年发行首张同名专辑,虽然经历种种挫败,却还是发掘出自身对摇滚的坚持与喜爱,经过无数努力,1979年的单曲〈America〉让Gianna打开欧洲市场,直到1984年的专辑《Puzzle》,大为成功的佔据多国排行前十名之列。此后Gianna频繁地在欧洲举行巡迴演唱会,不断与眾多著名国际音乐人合作。1990年替世界盃足球赛演唱义大利加油主题歌〈Un’estate italiana〉,登记多国冠军。完全无惧新秀的威胁,2006和2007年分别献上〈Grazie〉和〈Giannabest〉两张经典,分别创下七白金和六白金的傲人佳绩。

趁胜追击的Gianna,发表全新力作〈Giannadream - Solo I Sogni Sono Veri〉,直奔义大利榜亚军席次,快速累积金唱片销售,协同享誉国际的金牌制作大师Will Malone(Dido、Oasis、Kylie Minogue)齐力操盘。从〈Attimo Hot〉开始,清爽的吉他摇滚印入耳际,搭配Gianna沙哑高亢的嗓音,散发最迷人的抒情摇滚声线;伴随些许漫不经心的率性演绎〈Sogno Hot〉,衬著旋乐柔美辅佐,却不时传来电吉他的飆奏,形成颇强烈的对比;层次鲜明的〈Maledetto Ciao Hot〉,加料更为顺畅的线条,民族性的和声,拉啟属於世界音乐的族群融和感;利用钢琴柔美挑起聆听注意力的〈Siamo Nella Merda〉,中段突如其来的饶舌桥段和喧噪不已之暴衝频率,让这起伏不定的音韵左右著听者情绪;平稳动人的〈Ologramma〉展现出较为内敛的抒发,在此辑中Gianna保留自身狂野本性的同时,也注入最细腻感性的气质。

资源转帖自:http://ed2k-it.com/viewtopic.php?t=35317

引用
Exact Audio Copy V0.99 prebeta 4 from 23. January 2008

EAC extraction logfile from 14. July 2009, 18:44

Gianna Nannini / Giannadream

Used drive : TSSTcorpCD/DVDW SH-W162L Adapter: 3 ID: 1

Read mode : Secure
Utilize accurate stream : Yes
Defeat audio cache : Yes
Make use of C2 pointers : No

Read offset correction : 6
Overread into Lead-In and Lead-Out : No
Fill up missing offset samples with silence : Yes
Delete leading and trailing silent blocks : No
Null samples used in CRC calculations : Yes
Used interface : Installed external ASPI interface

Used output format : Internal WAV Routines
Sample format : 44.100 Hz; 16 Bit; Stereo


TOC of the extracted CD

Track | Start | Length | Start sector | End sector
---------------------------------------------------------
1 | 0:00.00 | 4:40.32 | 0 | 21031
2 | 4:40.32 | 4:28.60 | 21032 | 41191
3 | 9:09.17 | 3:39.19 | 41192 | 57635
4 | 12:48.36 | 4:36.53 | 57636 | 78388
5 | 17:25.14 | 3:51.21 | 78389 | 95734
6 | 21:16.35 | 4:01.46 | 95735 | 113855
7 | 25:18.06 | 4:39.26 | 113856 | 134806
8 | 29:57.32 | 3:21.56 | 134807 | 149937
9 | 33:19.13 | 4:04.21 | 149938 | 168258
10 | 37:23.34 | 3:18.60 | 168259 | 183168


Range status and errors

Selected range

Filename C:\Documents and Settings\??? ?????????\Gianna Nannini - Giannadream - Solo I Sogni Sono Veri.by.rat.eac.flac.covers.Israel-club.my1.ru\Gianna Nannini - Giannadream - Solo I Sogni Sono Veri.by.rat.eac.flac.covers.Israel-club.my1.ru.wav

Peak level 100.0 %
Range quality 100.0 %
Copy CRC FEF0F7F6
Copy OK

No errors occurred

End of status report



专辑曲目

01. Attimo
02. Sogno
03. Maledetto Ciao
04. Bambolina
05. Sogno Per Vivere
06. Siamo Nella Merda
07. Scossa Magica
08. Le Ragazze
09. Ologramma
10. Sogno Per Vivere (End)

正在读取……

这里是其它用户补充的资源(我也要补充):

暂无补充资源
正在加载,请稍等...

点击查看所有12网友评论

 

(?) [公告]留口水、评论相关规则 | [活动]每日签到 轻松领取电驴经验

    小贴士:
  1. 类似“顶”、“沙发”之类没有营养的文字,对勤劳贡献的楼主来说是令人沮丧的反馈信息。
  2. 提问之前请再仔细看一遍楼主的说明,或许是您遗漏了。
  3. 勿催片。请相信驴友们对分享是富有激情的,如果确有更新版本,您一定能搜索到。
  4. 请勿到处挖坑绊人、招贴广告。既占空间让人厌烦,又没人会搭理,于人于己都无利。
  5. 如果您发现自己的评论不见了,请参考以上4条。