v

您的位置:VeryCD动漫电视动画

动漫资源事务区


《监狱兔1-3季全集+花絮》(Usavich)[自压][x264+AC3][DVDRip]

  • 状态: 精华资源
  • 摘要:
    发行时间2009年
    语言日语
  • 时间: 2009/07/28 11:25:09 发布 | 2009/07/28 12:30:15 更新
  • 分类: 动漫  电视动画 

ydxfty

精华资源: 1

全部资源: 1

相关: 分享到新浪微博   转播到腾讯微博   分享到开心网   分享到人人   分享到QQ空间   订阅本资源RSS更新   美味书签  subtitle
该内容尚未提供权利证明,无法提供下载。
中文名监狱兔1-3季全集+花絮
英文名Usavich
别名ウサビッチ
资源格式DVDRip
版本[自压][x264+AC3]
发行时间2009年
导演富冈聡
地区日本
语言日语
简介

IPB Image

【作品介绍】

2006年日本文化省多媒体艺术节短篇动画部门入选
2007年渥太华国际动画电影节成人TV动画部门入选
  
「ウサビッチ」英文名称为「Usavich」这个日文命名满有意思的,
「ウサビッチ」应该是由「ウサギ」中文是兔子的意思和「ビッチ」音同英文的「BITCH」婊子所组成,所以可以翻成「婊子兔」。
我们这里根据故事义译为「监狱兔」或「越狱兔」。

故事时空背景为1962年的某俄罗斯监狱,是以俄国资本主义为背景做的动画。

【详细信息】

DVDRip自压版本,采用x264+AC3编码,附第一季具体信息

引用
General
Complete name : ウサビッチ.Usavich.S01.2008.DVDRip.x264.AC3.mkv
Format : Matroska
File size : 436 MiB
Duration : 35mn 59s
Overall bit rate : 1 695 Kbps
Encoded date : UTC 2009-07-27 22:40:49
Writing application : mkvmerge v2.2.0 ('Turn It On Again') built on Mar 4 2008 12:58:26
Writing library : libebml v0.7.7 + libmatroska v0.8.1
Video #1
ID : 1
Format : AVC
Format/Info : Advanced Video Codec
Format profile : High@L3.0
Format settings, CABAC : Yes
Format settings, ReFrames : 5 frames
Muxing mode : Container profile=Unknown@3.0
Codec ID : V_MPEG4/ISO/AVC
Duration : 35mn 57s
Bit rate : 1 469 Kbps
Nominal bit rate : 1 500 Kbps
Width : 656 pixels
Height : 480 pixels
Display aspect ratio : 4/3
Frame rate : 29.970 fps
Resolution : 24 bits
Colorimetry : 4:2:0
Scan type : Progressive
Bits/(Pixel*Frame) : 0.156
Stream size : 378 MiB (87%)
Writing library : x264 core 68 r1183M f21daff
Encoding settings : cabac=1 / ref=5 / deblock=1:-1:-1 / analyse=0x3:0x133 / me=umh / subme=7 / psy_rd=1.0:0.0 / mixed_ref=1 / me_range=16 / chroma_me=1 / trellis=2 / 8x8dct=1 / cqm=0 / deadzone=21,11 / chroma_qp_offset=-2 / threads=3 / nr=0 / decimate=1 / mbaff=0 / bframes=3 / b_pyramid=1 / b_adapt=2 / b_bias=0 / direct=3 / wpredb=1 / keyint=250 / keyint_min=25 / scenecut=40 / rc=2pass / bitrate=1500 / ratetol=1.0 / qcomp=0.60 / qpmin=10 / qpmax=51 / qpstep=4 / cplxblur=20.0 / qblur=0.5 / ip_ratio=1.40 / pb_ratio=1.30 / aq=1:1.00
Language : English
Audio #2
ID : 2
Format : AC-3
Format/Info : Audio Coding 3
Codec ID : A_AC3
Duration : 35mn 59s
Bit rate mode : Constant
Bit rate : 192 Kbps
Channel(s) : 2 channels
Channel positions : L R
Sampling rate : 48.0 KHz
Stream size : 49.4 MiB (11%)
Language : Japanese

正在读取……

这里是其它用户补充的资源(我也要补充):

暂无补充资源
正在加载,请稍等...

点击查看所有98网友评论

 

(?) [公告]留口水、评论相关规则 | [活动]每日签到 轻松领取电驴经验

    小贴士:
  1. 类似“顶”、“沙发”之类没有营养的文字,对勤劳贡献的楼主来说是令人沮丧的反馈信息。
  2. 提问之前请再仔细看一遍楼主的说明,或许是您遗漏了。
  3. 勿催片。请相信驴友们对分享是富有激情的,如果确有更新版本,您一定能搜索到。
  4. 请勿到处挖坑绊人、招贴广告。既占空间让人厌烦,又没人会搭理,于人于己都无利。
  5. 如果您发现自己的评论不见了,请参考以上4条。