v

您的位置:VeryCD音乐欧美音乐

音乐资源事务区


Bluetech -《Phoenix Rising》[WV]

  • 状态: 精华资源
  • 摘要:
    音乐风格电子
    发行时间2008年7月
    地区美国
    语言英语
  • 时间: 2009/07/15 15:44:07 发布 | 2009/07/17 22:57:52 更新
  • 分类: 音乐  欧美音乐 

czp568

精华资源: 343

全部资源: 344

相关: 分享到新浪微博   转播到腾讯微博   分享到开心网   分享到人人   分享到QQ空间   订阅本资源RSS更新   美味书签  subtitle
该内容尚未提供权利证明,无法提供下载。
专辑英文名Phoenix Rising
歌手Bluetech
音乐风格电子
资源格式WV
发行时间2008年7月
地区美国
语言英语
简介

IPB Image

发行厂牌:Somnia Digital
专辑风格:Ambient
专辑简介:

Evan Bluetech,简称 Bluetech,是一个以创作电子音乐为主的音乐制作人,音乐风格以 Downtempo 与 Ambient music 音乐为主。但他的音乐风格也是多样化的,所以也会在他创作的作品中听到更多不同类型和风格的音乐。

原英文简介:

Bluetech returns with his first new material since 2005. After splitting his musical expression into multiple aliases, phoenix rising marks his return to eclectic, ecstatic, and emotional electronic music, and exists as a precursor to an expansive album entitled the divine invasion coming early 2009 on Aleph Zero records
Music incubated in dreams, flows of energy from ancestral sources, the shape of the wind.

抓轨日志:

引用
Exact Audio Copy V0.99 prebeta 5 from 4. May 2009

EAC extraction logfile from 3. July 2009, 20:37

Bluetech / Phoenix Rising

Used drive : HL-DT-STRW/DVD GCC-4241N Adapter: 1 ID: 0

Read mode : Secure
Utilize accurate stream : Yes
Defeat audio cache : Yes
Make use of C2 pointers : No

Read offset correction : 102
Overread into Lead-In and Lead-Out : No
Fill up missing offset samples with silence : Yes
Delete leading and trailing silent blocks : No
Null samples used in CRC calculations : Yes
Used interface : Installed external ASPI interface

Used output format : User Defined Encoder
Selected bitrate : 768 kBit/s
Quality : High
Add ID3 tag : No
Command line compressor : C:\Program Files\Exact Audio Copy\wavpack.exe
Additional command line options : -hmxd -w "GENRE=%m" -w "DATE=%y" -w "COMMENT=Released by a-one" %s %d


TOC of the extracted CD

Track | Start | Length | Start sector | End sector
---------------------------------------------------------
1 | 0:00.00 | 7:22.71 | 0 | 33220
2 | 7:22.71 | 6:19.07 | 33221 | 61652
3 | 13:42.03 | 5:21.26 | 61653 | 85753
4 | 19:03.29 | 7:49.28 | 85754 | 120956
5 | 26:52.57 | 7:56.49 | 120957 | 156705
6 | 34:49.31 | 8:54.32 | 156706 | 196787
7 | 43:43.63 | 7:14.30 | 196788 | 229367


Range status and errors

Selected range

Filename C:\Rips\Bluetech - Phoenix Rising.wav

Peak level 97.7 %
Range quality 100.0 %
Test CRC 408CE7E8
Copy CRC 408CE7E8
Copy OK

No errors occurred

End of status report


LINK:

引用



专辑曲目

01. my dear friend kronos
02. what the night reveals
03. kingdom of the blind (third i mix)
04. a delicate mystery (new life mix)
05. riding the sky elevator
06. phoenix rising
07. invocation (the fire within)

正在读取……

这里是其它用户补充的资源(我也要补充):

暂无补充资源
正在加载,请稍等...

点击查看所有9网友评论

 

(?) [公告]留口水、评论相关规则 | [活动]每日签到 轻松领取电驴经验

    小贴士:
  1. 类似“顶”、“沙发”之类没有营养的文字,对勤劳贡献的楼主来说是令人沮丧的反馈信息。
  2. 提问之前请再仔细看一遍楼主的说明,或许是您遗漏了。
  3. 勿催片。请相信驴友们对分享是富有激情的,如果确有更新版本,您一定能搜索到。
  4. 请勿到处挖坑绊人、招贴广告。既占空间让人厌烦,又没人会搭理,于人于己都无利。
  5. 如果您发现自己的评论不见了,请参考以上4条。