v

您的位置:VeryCD音乐欧美音乐

音乐资源事务区


Sharon Robinson -《Everybody Knows》[APE]

  • 状态: 精华资源
  • 摘要:
    音乐风格流行
    发行时间2008年
    地区美国
    语言英语
  • 时间: 2009/07/14 20:41:21 发布 | 2009/07/16 22:01:38 更新
  • 分类: 音乐  欧美音乐 

czp568

精华资源: 343

全部资源: 344

相关: 分享到新浪微博   转播到腾讯微博   分享到开心网   分享到人人   分享到QQ空间   订阅本资源RSS更新   美味书签  subtitle
该内容尚未提供权利证明,无法提供下载。
专辑英文名Everybody Knows
音乐风格流行
资源格式APE
发行时间2008年
地区美国
语言英语
简介

IPB Image

专辑风格:pop/rock
专辑简介:

Sharon Robinson,一位美国唱片制作人,歌曲作者,以及歌手
  她以与Leonard Cohen的合作而广为人知。她也为其他许多歌手创作过歌曲,包括Aaron Neville, Diana Ross, Don Henley, Randy Crawford, Roberta Flack, The Temptations
  她在Leonard Cohen 1979,1080以及2008年的巡回演出中担任他的和声歌手,他们还合作了比如“Waiting For The Miracle”,“Everybody Knows” 等一些Cohen经典的歌曲。2001年她参与演唱,创作,制作了Cohen的专辑“Ten New Songs”. Cohen 2004年的专辑Dear Heather中依然见到了Sharon的身影,他们合唱了这张专辑中的歌曲“The Letters”
  Sharon在1985年获得了格莱美奖,为她赢得这一奖项的是她为电影“Beverly Hills Cop” 做,Patti LaBelle 演唱的歌曲 New Attitude
  2008年Sharon制作了自己的专辑,名为“Everybody Knows”,其中包括了他她和Cohen合作的三首歌,Alexandera Leaving,Everybody Knows,和他们第一次合作,并由Diana Ross首唱的Summertime。这张专辑中也包括了The High Road,以及其他六首Sharon创作的歌曲
  Sharon虽然以歌曲制作人的身份活跃着,Cohen的歌曲幕后也总是有她的身影,但是Sharon本人的嗓音非常漂亮,醇厚,磁性和穿透力,有丝绸般的感觉

原英文简介:

"Everybody should know about Sharon Robinson."

"Endowed with a rich, soulful alto - landing somewhere between Roberta Flack, Cassandra Wilson, and Sade Adu - Robinson breathes immeasurable levels of misty-eyed longing and downhearted reflection into her songs, thus delivering far more than simply a gorgeous voice floating above subtle electronic textures. Fans of the lights-down-low atmospherics and mellow-soul of Zero 7 should find themselves similarly engrossed by this disc."

官方网站:http://www.sharonrobinsonmusic.com/
试听地址:http://www.myspace.com/sharonrobinsonmusic

引用
EAC extraction logfile from 3. June 2009, 20:40 for CD
Sharon Robinson / Everybody Knows
Used drive : PLEXTOR CD-R PREMIUM2 Adapter: 1 ID: 0
Read mode : Secure with NO C2, accurate stream, disable cache
Read offset correction : 30
Overread into Lead-In and Lead-Out : No
Used output format : C:\Program Files\EAC\flac.exe (User Defined Encoder)
320 kBit/s
Additional command line options : --best -V -T "date=%y" -T "genre=%m" %s
Other options :
Fill up missing offset samples with silence : Yes
Delete leading and trailing silent blocks : No
Installed external ASPI interface
Track 1
Filename Z:\Sharon Robinson - Everybody Knows\01 - Invisible Tattoo.wav
Pre-gap length 0:00:02.00
Peak level 98.8 %
Track quality 100.0 %
Test CRC E6C10110
Copy CRC E6C10110
Copy OK
Track 2
Filename Z:\Sharon Robinson - Everybody Knows\02 - Party for the Lonely.wav
Pre-gap length 0:00:03.33
Peak level 98.8 %
Track quality 100.0 %
Test CRC 34F102CB
Copy CRC 34F102CB
Copy OK
Track 3
Filename Z:\Sharon Robinson - Everybody Knows\03 - Everybody Knows.wav
Pre-gap length 0:00:01.36
Peak level 98.8 %
Track quality 100.0 %
Test CRC 7C584EB1
Copy CRC 7C584EB1
Copy OK
Track 4
Filename Z:\Sharon Robinson - Everybody Knows\04 - The Train.wav
Pre-gap length 0:00:01.58
Peak level 98.8 %
Track quality 100.0 %
Test CRC 222A7D72
Copy CRC 222A7D72
Copy OK
Track 5
Filename Z:\Sharon Robinson - Everybody Knows\05 - Second Hand.wav
Pre-gap length 0:00:02.27
Peak level 98.8 %
Track quality 100.0 %
Test CRC 43636DE7
Copy CRC 43636DE7
Copy OK
Track 6
Filename Z:\Sharon Robinson - Everybody Knows\06 - Forever in a Kiss.wav
Pre-gap length 0:00:02.23
Peak level 98.8 %
Track quality 100.0 %
Test CRC 921968F1
Copy CRC 921968F1
Copy OK
Track 7
Filename Z:\Sharon Robinson - Everybody Knows\07 - The High Road.wav
Pre-gap length 0:00:02.05
Peak level 98.8 %
Track quality 100.0 %
Test CRC 8C7A0521
Copy CRC 8C7A0521
Copy OK
Track 8
Filename Z:\Sharon Robinson - Everybody Knows\08 - Sustenance.wav
Pre-gap length 0:00:02.30
Peak level 98.8 %
Track quality 100.0 %
Test CRC ED99EF9F
Copy CRC ED99EF9F
Copy OK
Track 9
Filename Z:\Sharon Robinson - Everybody Knows\09 - Alexandra Leaving.wav
Pre-gap length 0:00:01.43
Peak level 98.8 %
Track quality 100.0 %
Test CRC A82687ED
Copy CRC A82687ED
Copy OK
Track 10
Filename Z:\Sharon Robinson - Everybody Knows\10 - Summertime.wav
Pre-gap length 0:00:02.56
Peak level 98.8 %
Track quality 99.9 %
Test CRC B101F2BA
Copy CRC B101F2BA
Copy OK
No errors occured
End of status report



专辑曲目

01 Invisible Tattoo
02 Party for the Lonely
03 Everybody Knows
04 The Train
05 Secondhand
06 Forever in a Kiss
07 The High Road
08 Sustenance
09 Alexandra Leaving
10 Summertime

正在读取……

这里是其它用户补充的资源(我也要补充):

暂无补充资源
正在加载,请稍等...

点击查看所有8网友评论

 

(?) [公告]留口水、评论相关规则 | [活动]每日签到 轻松领取电驴经验

    小贴士:
  1. 类似“顶”、“沙发”之类没有营养的文字,对勤劳贡献的楼主来说是令人沮丧的反馈信息。
  2. 提问之前请再仔细看一遍楼主的说明,或许是您遗漏了。
  3. 勿催片。请相信驴友们对分享是富有激情的,如果确有更新版本,您一定能搜索到。
  4. 请勿到处挖坑绊人、招贴广告。既占空间让人厌烦,又没人会搭理,于人于己都无利。
  5. 如果您发现自己的评论不见了,请参考以上4条。