v

您的位置:VeryCD音乐欧美音乐

音乐资源事务区


Kurt Elling -《 Dedicated to You》[WV]

  • 状态: 精华资源
  • 摘要:
    音乐风格爵士
    发行时间2009年
    地区美国
    语言英语
  • 时间: 2009/07/14 15:05:18 发布 | 2009/07/14 18:01:45 更新
  • 分类: 音乐  欧美音乐 

czp568

精华资源: 343

全部资源: 344

相关: 分享到新浪微博   转播到腾讯微博   分享到开心网   分享到人人   分享到QQ空间   订阅本资源RSS更新   美味书签  subtitle
该内容尚未提供权利证明,无法提供下载。
专辑英文名 Dedicated to You
歌手Kurt Elling
音乐风格爵士
资源格式WV
发行时间2009年
地区美国
语言英语
简介

IPB Image

发行厂牌:Concord Jazz
专辑风格:Jazz
专辑简介:
蓝调之音当家爵士男声 -- Kurt Elling

IPB Image

第一张专辑发行后,才8年多的时间,库特.艾灵(Kurt Elling)便在35岁成为国际知名、引领时代潮流的爵士歌手,目前名气可媲美艾拉.费兹杰罗(Ella Fitzgerald)。他为指针性爵士老字号厂牌蓝调之音(Blue Note)录制的每一张专辑,连续5年都获葛莱美奖提名,更被英国Jazz Review杂志评为:「当今最伟大爵士歌手」;着名爵士歌手琼.汉翠克斯(Jon Hendricks)称库特‧艾灵,为下一位爵士男声火红炸子鸡;此外,灌录专辑张张受到爵士杂志高规格注目与评价,All music、Amazon编辑与听众票选为最爱中生代乐手之一。

1997年获芝加哥音乐大奖"年度最佳爵士专辑";1998年获Playboy杂志评为:「90年代最佳爵士男歌手」;已故的爵士乐大师Artie Shaw称:「库特.艾灵是当今最富趣味与创新的爵士歌手。」

Kurt完全摆脱了传统Jazz男歌手的框架,他酷酷的声音中有着都会人特有的时尚感,编曲中有许多不同于一般的创意与发想,人声与乐团的互动之间,更是充满 了惊喜,Kurt绝对是当代Jazz"男声"中的新指针!

抓轨日志:

引用

Exact Audio Copy V0.99 prebeta 5 from 4. May 2009
EAC extraction logfile from 9. July 2009, 18:26
Kurt Elling / Dedicated to You(sing the music of coltrane & hartman)
Used drive : HL-DT-STDVDRAM GSA-4165B Adapter: 3 ID: 0
Read mode : Secure
Utilize accurate stream : Yes
Defeat audio cache : Yes
Make use of C2 pointers : No
Read offset correction : 667
Overread into Lead-In and Lead-Out : Yes
Fill up missing offset samples with silence : Yes
Delete leading and trailing silent blocks : No
Null samples used in CRC calculations : Yes
Used interface : Installed external ASPI interface
Used output format : Internal WAV Routines
Sample format : 44.100 Hz; 16 Bit; Stereo
Use compression offset : 0
TOC of the extracted CD
Track | Start | Length | Start sector | End sector
---------------------------------------------------------
1 | 0:00.00 | 6:52.21 | 0 | 30920
2 | 6:52.21 | 4:07.24 | 30921 | 49469
3 | 10:59.45 | 6:35.58 | 49470 | 79152
4 | 17:35.28 | 2:40.15 | 79153 | 91167
5 | 20:15.43 | 4:39.30 | 91168 | 112122
6 | 24:54.73 | 3:14.05 | 112123 | 126677
7 | 28:09.03 | 6:40.17 | 126678 | 156694
8 | 34:49.20 | 4:01.03 | 156695 | 174772
9 | 38:50.23 | 3:26.43 | 174773 | 190265
10 | 42:16.66 | 4:56.47 | 190266 | 212512
11 | 47:13.38 | 0:40.41 | 212513 | 215553
12 | 47:54.04 | 8:10.27 | 215554 | 252330
Range status and errors
Selected range
Filename C:\Kurt Elling - Dedicated to You(sing the music of coltrane & hartman).wav
Peak level 98.9 %
Range quality 99.9 %
Copy CRC 5D92A2E1
Copy OK
No errors occurred
End of status report


官方网站:http://www.kurtelling.com/
试听地址:http://www.myspace.com/kurtelling



专辑曲目

01. All Or Nothing At All
02. It’s Easy To Remember
03. Dedicated To You
04. What’s New (instrumental)
05. Lush Life
06. Autumn Serenade
07. Say It (Over And Over Again)
08. They Say It’s Wonderful
09. My One and Only Love
10. Nancy with The Laughing Face
11. Acknowledgements
12. You Are Too Beautiful

正在读取……

这里是其它用户补充的资源(我也要补充):

暂无补充资源
正在加载,请稍等...

点击查看所有5网友评论

 

(?) [公告]留口水、评论相关规则 | [活动]每日签到 轻松领取电驴经验

    小贴士:
  1. 类似“顶”、“沙发”之类没有营养的文字,对勤劳贡献的楼主来说是令人沮丧的反馈信息。
  2. 提问之前请再仔细看一遍楼主的说明,或许是您遗漏了。
  3. 勿催片。请相信驴友们对分享是富有激情的,如果确有更新版本,您一定能搜索到。
  4. 请勿到处挖坑绊人、招贴广告。既占空间让人厌烦,又没人会搭理,于人于己都无利。
  5. 如果您发现自己的评论不见了,请参考以上4条。