v

您的位置:VeryCD音乐欧美音乐

音乐资源事务区


Vanessa Williams -《Next》[APE]

  • 状态: 精华资源
  • 摘要:
    音乐风格节奏布鲁斯
    发行时间1997年
    地区美国
    语言英语
  • 时间: 2009/07/13 16:38:05 发布 | 2009/07/16 22:41:48 更新
  • 分类: 音乐  欧美音乐 

hookzhang

精华资源: 8

全部资源: 10

相关: 分享到新浪微博   转播到腾讯微博   分享到开心网   分享到人人   分享到QQ空间   订阅本资源RSS更新   美味书签  subtitle
该内容尚未提供权利证明,无法提供下载。
专辑英文名Next
音乐风格节奏布鲁斯
资源格式APE
发行时间1997年
地区美国
语言英语
简介

IPB Image

专辑曲目:

这位散发优雅气质的黑美人,将自己由里到外的优点全都毫不加以掩饰的表现出来,姣好的外表让她获选为美国第一位非裔黑人摘下美国小姐后冠;匀称的身材比例让她成为模特儿界炙手可热的封面、走秀人物;动人的嗓音让她赢取唱片公司的赏赐推出张张卖座的专辑;精湛的演技让她获得电影公司、舞台剧的青睐,找她独挑大梁上映出一部部优质戏码;也曾访台留下亲切随和的好印象,Vanessa William这位天生的艺人,更是不可多得的全方位才女!

虽然曾因为裸照风波,而被摘下后冠,也经历了一段低潮期,但在亲密爱人的感化下,Vanessa她跨出了自己的黑暗面,1988年发行首张个人作品「The Right Stuff」,可快可慢的舞曲、节奏蓝调之音阶掌握,让Vanessa在歌唱界拾获另一片天。1991年的「The Comfort Zone」,更为性感成熟的完美表现,让她尝到冠军的滋味,一曲传遍大街小巷的Save The Best For Last ,为Vanessa的歌唱旅途立下相当重要之里程碑;接连再发行「Sweetest Days」、「Star Bright」、「Next」等作品、替迪士尼动画【风中奇缘】所献唱的 The Colour Of The Wind ,都刻划在乐迷心中最美丽的声音收藏!接著忙碌奔波於百老汇、电影等舞台剧、戏剧演出,充分表露Vanessa不凡的全方位实力!

引用

PERFORMER "Vanessa Williams"
TITLE "Next"
FILE "Vanessa Williams - Next - 01 - Who Were You Thinkin' 'Bout.ape" WAVE
TRACK 01 AUDIO
TITLE "Who Were You Thinkin' 'Bout?"
INDEX 01 00:00:00
TRACK 02 AUDIO
TITLE "Happiness"
INDEX 01 04:04:27
TRACK 03 AUDIO
TITLE "And My Heart Goes"
INDEX 01 08:31:00
TRACK 04 AUDIO
TITLE "First Thing On Your Mind"
INDEX 01 12:51:02
TRACK 05 AUDIO
TITLE "Crazy 'Bout You"
INDEX 01 16:37:60
TRACK 06 AUDIO
TITLE "Lost Without You"
INDEX 01 21:09:40
TRACK 07 AUDIO
TITLE "Someone Like You"
INDEX 01 25:49:27
TRACK 08 AUDIO
TITLE "The Easiest Thing"
INDEX 01 30:41:22
TRACK 09 AUDIO
TITLE "Surrender"
INDEX 01 35:12:25
TRACK 10 AUDIO
TITLE "Start Again"
INDEX 01 40:05:27
TRACK 11 AUDIO
TITLE "And If I Ever"
INDEX 01 43:58:65
TRACK 12 AUDIO
TITLE "Oh How The Years Go By"
INDEX 01 48:03:25


下面是320K压缩包情况

IPB Image



专辑曲目

01. Who Were You Thinkin' 'Bout? (4:04)
02. Happiness (4:27)
03. And My Heart Goes (4:20)
04. First Thing On Your Mind (3:47)
05. Crazy 'Bout You (4:32)
06. Lost Without You (4:40)
07. Someone Like You (4:52)
08. The Easiest Thing (4:31)
09. Surrender (4:53)
10. Start Again (3:54)
11. And If I Ever (4:04)
12. Oh How The Years Go By (5:11)

正在读取……

这里是其它用户补充的资源(我也要补充):

暂无补充资源
正在加载,请稍等...

点击查看所有14网友评论

 

(?) [公告]留口水、评论相关规则 | [活动]每日签到 轻松领取电驴经验

    小贴士:
  1. 类似“顶”、“沙发”之类没有营养的文字,对勤劳贡献的楼主来说是令人沮丧的反馈信息。
  2. 提问之前请再仔细看一遍楼主的说明,或许是您遗漏了。
  3. 勿催片。请相信驴友们对分享是富有激情的,如果确有更新版本,您一定能搜索到。
  4. 请勿到处挖坑绊人、招贴广告。既占空间让人厌烦,又没人会搭理,于人于己都无利。
  5. 如果您发现自己的评论不见了,请参考以上4条。