v

您的位置:VeryCD音乐欧美音乐

音乐资源事务区


Slow Club -《Yeah So》[MP3]

  • 状态: 精华资源
  • 摘要:
    音乐风格民谣
    发行时间2009年7月6日
    地区英国
    语言英语
  • 时间: 2009/07/09 15:53:08 发布 | 2009/07/15 14:30:20 更新
  • 分类: 音乐  欧美音乐 

czp568

精华资源: 343

全部资源: 344

相关: 分享到新浪微博   转播到腾讯微博   分享到开心网   分享到人人   分享到QQ空间   订阅本资源RSS更新   美味书签  subtitle
该内容尚未提供权利证明,无法提供下载。
专辑英文名Yeah So
歌手Slow Club
音乐风格民谣
资源格式MP3
发行时间2009年7月6日
地区英国
语言英语
简介


IPB Image

专辑简介:
压缩码率:192kbps
专辑名称:Yeah So?
专辑歌手:Slow Club
音乐类型:Folk,Indie Pop,Twee Pop,Jangle Pop
唱片公司:Moshi Moshi Records
发行日期:2009年07月06日
专辑语言:英语


IPB Image

来自Sheffield的清新男女民谣组合早在08年就开始关注。温暖甜蜜的调调以及原汁原味的吉他弹奏仿佛一直离不开这种风格。团队成员Charles和Rebecca的声音也配合的相当不错,Charles纯真自然冷静的乐器包办以及Rebecca的美丽诠释让这对组合深受广大音乐者的喜爱,几场Live也足够的迷人。而这次新专辑终于也呼之欲出,虽然有老有旧,但还是那么美妙动听,制作过程也相当和谐,顺利,也有其他艺人的友情加入,或许他们真该为新专辑的发售开场庆功宴,因为喜欢他们的人相当多,而日程活动也被安排的满满的,这个夏天他们的音乐或许真的可以打动烦闷的心灵

cue:

引用
REM GENRE Indie
REM DATE 2009
PERFORMER "Slow Club"
TITLE "Yeah So"
FILE "Slow.Club.-.[Yeah.So].专辑.(mp3).mp3" WAVE
TRACK 01 AUDIO
TITLE "When I Go"
INDEX 01 00:00:00
TRACK 02 AUDIO
TITLE "Giving Up On Love"
INDEX 01 03:05:40
TRACK 03 AUDIO
TITLE "I Was Unconscious, It Was A Dream"
INDEX 01 05:56:19
TRACK 04 AUDIO
TITLE "It Doesn't Have To Be Beautiful"
INDEX 01 09:32:62
TRACK 05 AUDIO
TITLE "There Is No Good Way To Say I'm Leaving You"
INDEX 01 13:17:36
TRACK 06 AUDIO
TITLE "Trophy Room"
INDEX 01 16:23:36
TRACK 07 AUDIO
TITLE "Because We're Dead"
INDEX 01 20:01:14
TRACK 08 AUDIO
TITLE "Dance 'Till The Morning Light"
INDEX 01 22:58:21
TRACK 09 AUDIO
TITLE "Sorry About The Doom"
INDEX 01 26:16:67
TRACK 10 AUDIO
TITLE "Come On Youth"
INDEX 01 28:34:59
TRACK 11 AUDIO
TITLE "Apples And Pairs"
INDEX 01 31:44:39
TRACK 12 AUDIO
TITLE "Our Most Brilliant Friends"
INDEX 01 35:32:26



专辑曲目

01. When I Go
02. Giving Up On Love
03. I Was Unconscious, It Was A Dream
04. It Doesn't Have To Be Beautiful
05. There Is No Good Way To Say I'm Leaving You
06. Trophy Room
07. Because We're Dead
08. Dance 'Till The Morning Light
09. Sorry About The Doom
10. Come On Youth
11. Apples And Pairs
12. Our Most Brilliant Friends

官方网站:http://www.slowclub.com//
试听地址:http://www.myspace.com/slowclub

正在读取……

这里是其它用户补充的资源(我也要补充):

暂无补充资源
正在加载,请稍等...

点击查看所有26网友评论

 

(?) [公告]留口水、评论相关规则 | [活动]每日签到 轻松领取电驴经验

    小贴士:
  1. 类似“顶”、“沙发”之类没有营养的文字,对勤劳贡献的楼主来说是令人沮丧的反馈信息。
  2. 提问之前请再仔细看一遍楼主的说明,或许是您遗漏了。
  3. 勿催片。请相信驴友们对分享是富有激情的,如果确有更新版本,您一定能搜索到。
  4. 请勿到处挖坑绊人、招贴广告。既占空间让人厌烦,又没人会搭理,于人于己都无利。
  5. 如果您发现自己的评论不见了,请参考以上4条。