v

您的位置:VeryCD音乐欧美音乐

音乐资源事务区


Kamera -《Blank Expressions 》[MP3]

  • 状态: 精华资源
  • 摘要:
    音乐风格摇滚
    发行时间2009年6月30日
    地区瑞典
    语言英语,瑞典语
  • 时间: 2009/07/09 14:32:58 发布 | 2009/07/15 14:37:26 更新
  • 分类: 音乐  欧美音乐 

czp568

精华资源: 343

全部资源: 344

相关: 分享到新浪微博   转播到腾讯微博   分享到开心网   分享到人人   分享到QQ空间   订阅本资源RSS更新   美味书签  subtitle
该内容尚未提供权利证明,无法提供下载。
专辑英文名Blank Expressions
歌手Kamera
音乐风格摇滚
资源格式MP3
发行时间2009年6月30日
地区瑞典
语言英语,瑞典语
简介

IPB Image

专辑简介:
压缩码率:192kpbs
专辑风格风格:New Wave ,Synth-Pop,Alternative Pop/Rock,Electro-Synth


IPB Image

俩年前,我仅仅是在我的单曲剪辑中介绍了这只来自瑞典的5人乐队,因为当时他们不单自称一派,而且参杂着80年代末的英伦气息。新浪潮,还有Synth Pop风格是这只另类摇滚乐队所要表现的一部分。新专辑《Blank Expressions 》发行了,让Kamera显得更加成熟和饱满。10首歌不多不少,刚够。来赏赏。

专辑资料来自:http://www.musicsaiilor.com

cue:

引用
REM GENRE Alternative
REM DATE 2009
REM COMMENT www.musicsailor.com
PERFORMER "Kamera"
TITLE "Blank Expressions"
FILE "Kamera.-.[Blank.Expressions].专辑.(mp3).mp3" WAVE
TRACK 01 AUDIO
TITLE "Asleep"
INDEX 01 00:00:00
TRACK 02 AUDIO
TITLE "Misfortune Strikes Again"
INDEX 01 04:31:33
TRACK 03 AUDIO
TITLE "Dead Man Walking"
INDEX 01 08:18:34
TRACK 04 AUDIO
TITLE "Just A Minute"
INDEX 01 12:43:19
TRACK 05 AUDIO
TITLE "Miserable"
INDEX 01 16:23:47
TRACK 06 AUDIO
TITLE "Friday Night"
INDEX 01 20:55:01
TRACK 07 AUDIO
TITLE "The City"
INDEX 01 24:15:23
TRACK 08 AUDIO
TITLE "Keep Me Alive"
INDEX 01 29:01:34
TRACK 09 AUDIO
TITLE "Repeat"
INDEX 01 33:21:22
TRACK 10 AUDIO
TITLE "Live To Pretend"
INDEX 01 37:22:58



专辑曲目

01. Asleep
02. Misfortune Strikes Again
03. Dead Man Walking
04. Just A Minute
05. Miserable
06. Friday Night
07. The City
08.Keep Me Alive
09. Repeat
10. Live To Pretend

官方网站:http://www.kamerastyle.com/

试听地址:http://www.myspace.com/kamerastyle

正在读取……

这里是其它用户补充的资源(我也要补充):

暂无补充资源
正在加载,请稍等...

点击查看所有9网友评论

 

(?) [公告]留口水、评论相关规则 | [活动]每日签到 轻松领取电驴经验

    小贴士:
  1. 类似“顶”、“沙发”之类没有营养的文字,对勤劳贡献的楼主来说是令人沮丧的反馈信息。
  2. 提问之前请再仔细看一遍楼主的说明,或许是您遗漏了。
  3. 勿催片。请相信驴友们对分享是富有激情的,如果确有更新版本,您一定能搜索到。
  4. 请勿到处挖坑绊人、招贴广告。既占空间让人厌烦,又没人会搭理,于人于己都无利。
  5. 如果您发现自己的评论不见了,请参考以上4条。