v

您的位置:VeryCD综艺晚会典礼

综艺资源事务区


《迈克尔·杰克逊送别仪式》(Michael Jackson 1958-2009 Memorial)NBC版本HDTV+CBS版本720P+1080i[HDTV]

  • 状态: 精华资源
  • 摘要:
    发行时间2009年07月08日
    地区美国
    语言英语
  • 时间: 2009/07/08 10:09:29 发布 | 2009/07/13 23:35:14 更新
  • 分类: 综艺  晚会典礼 

csbeyond

精华资源: 179

全部资源: 180

相关: 分享到新浪微博   转播到腾讯微博   分享到开心网   分享到人人   分享到QQ空间   订阅本资源RSS更新   美味书签  subtitle
该内容尚未提供权利证明,无法提供下载。
中文名迈克尔·杰克逊送别仪式
英文名Michael Jackson 1958-2009 Memorial
资源格式HDTV
版本NBC版本HDTV+CBS版本720P+1080i
发行时间2009年07月08日
电视台NBC
地区美国
语言英语
简介

IPB Image

720P和1080i是楼下网友分享的,我拉上来,方便大家下载,暂无字幕

感谢YYeTs-MJFANSUB人人影视MJ同好会制作中文字幕:

更新3CD全:http://yyets.net/?mod=2&ac=download&class=juji&id=235

迈克尔杰克逊的葬礼将于洛杉矶当地时间7月7日周二上午10点钟(北京时间7月8日周三凌晨1点)在洛杉矶斯台普斯中心举行。


斯台普斯中心的拥有者AEGlive公司将提供葬礼所需的设施和场地。据内部消息,AEG将在灵堂外设置巨大显示屏,供歌迷们悼念心中偶像。主办方为了保证杰克逊葬礼的进行,将原本要在中心举行表演的Ringling Bros. 和 Barnum & Bailey Circus的演出推迟。


巧合的是,斯台普斯中心是杰克逊度过人生最后一晚的地方,6月24日晚,杰克逊正是在那里彩排到深夜,为他即将进行的伦敦演唱会的做准备。


引用
Micheal.Jackson.1958-2009.Memorial.HDTV.XviD-2HD
------------------------------------------------

NBC's coverage of historical TV event for a man who's life was over
too soon. R.I.P MJ. You'll be missed.


General

Complete name : D:\1\micheal.jackson.memorial.cd1.xvid-2hd.avi

Format : AVI

Format/Info : Audio Video Interleave

File size : 701 MiB

Duration : 59mn 55s

Overall bit rate : 1 635 Kbps

Writing application : Nandub v1.0rc2

Writing library : Nandub build 1852/release



Video

Format : MPEG-4 Visual

Format profile : Streaming Video@L1

Format settings, BVOP : Yes

Format settings, QPel : No

Format settings, GMC : No warppoints

Format settings, Matrix : Default

Muxing mode : Packet Bitstream

Codec ID : XVID

Codec ID/Hint : XviD

Duration : 59mn 55s

Bit rate : 1 493 Kbps

Width : 624 pixels

Height : 352 pixels

Display aspect ratio : 16/9

Frame rate : 29.970 fps

Resolution : 24 bits

Colorimetry : 4:2:0

Scan type : Progressive

Bits/(Pixel*Frame) : 0.227

Stream size : 640 MiB (91%)

Writing library : XviD 50



Audio

Format : MPEG Audio

Format version : Version 1

Format profile : Layer 3

Codec ID : 55

Codec ID/Hint : MP3

Duration : 59mn 55s

Bit rate mode : Variable

Bit rate : 128 Kbps

Channel(s) : 2 channels

Sampling rate : 48.0 KHz

Resolution : 16 bits

Stream size : 54.9 MiB (8%)

Alignment : Aligned on interleaves

Interleave, duration : 24 ms (0.72 video frame)

Interleave, preload duration : 514 ms



引用
Technical Specifications

RUNTIME...........: 02:43:45
VIDEO CODEC.......: x264, 2pass, L4.1
VIDEO BITRATE.....: ~ 5396 Kbps
RESOLUTION........: 1280x720
FRAMERATE.........: 29,970 fps
AUDIO.............: English AC3 2.0 @ 384 kbps
SOURCE............: Michael Jackson: The Memorial 1080i HDTV DD2.0 MPEG2-CtrlHD
(Thanks Grover!)

ENCODED BY........: puby



IPB Image
IPB Image
IPB Image

正在读取……

这里是其它用户补充的资源(我也要补充):

wokin 2009/07/08 17:09:30 补充
怀念

该内容尚未提供权利证明,无法提供下载。

karymay 2009/07/11 01:24:14 补充
1080的

该内容尚未提供权利证明,无法提供下载。

教父ZR 2009/07/12 19:15:08 补充
《MICHAEL JACKSON(迈克尔杰克逊)追思会公众悼念仪式》.CBS纪念版.(HDTV.720P)

该内容尚未提供权利证明,无法提供下载。

speed07 2009/07/13 13:50:04 补充
代码Technical SpecificationsRUNTIME...........: 02:43:45VIDEO CODEC.......: x264, 2pass, L

该内容尚未提供权利证明,无法提供下载。

Lineon 2009/07/13 20:01:47 补充
CBS版本旁白雜音比較多, 我這裡有NBC版本的720P, 不過這個版本少了進場. 期待誰有更完美的, 場內

该内容尚未提供权利证明,无法提供下载。

panxuejian 2009/07/14 15:22:30 补充
Michael Jackson Public Memorial - CNN版

该内容尚未提供权利证明,无法提供下载。

adeshen 2009/12/11 11:23:26 补充
...

该内容尚未提供权利证明,无法提供下载。
正在加载,请稍等...

点击查看所有1575网友评论

 

(?) [公告]留口水、评论相关规则 | [活动]每日签到 轻松领取电驴经验

    小贴士:
  1. 类似“顶”、“沙发”之类没有营养的文字,对勤劳贡献的楼主来说是令人沮丧的反馈信息。
  2. 提问之前请再仔细看一遍楼主的说明,或许是您遗漏了。
  3. 勿催片。请相信驴友们对分享是富有激情的,如果确有更新版本,您一定能搜索到。
  4. 请勿到处挖坑绊人、招贴广告。既占空间让人厌烦,又没人会搭理,于人于己都无利。
  5. 如果您发现自己的评论不见了,请参考以上4条。