v

您的位置:VeryCD音乐欧美音乐

音乐资源事务区


John Lennon -《John Lennon》Prom The Mail{更新无损}[MP3]

  • 状态: 精华资源
  • 摘要:
    音乐风格摇滚
    发行时间2009年
    地区英国
    语言英语
  • 时间: 2009/07/06 14:52:54 发布 | 2009/07/18 20:24:38 更新
  • 分类: 音乐  欧美音乐 

czp568

精华资源: 343

全部资源: 344

相关: 分享到新浪微博   转播到腾讯微博   分享到开心网   分享到人人   分享到QQ空间   订阅本资源RSS更新   美味书签  subtitle
该内容尚未提供权利证明,无法提供下载。
专辑英文名John Lennon
歌手John Lennon
音乐风格摇滚
资源格式MP3
版本Prom The Mail{更新无损}
发行时间2009年
地区英国
语言英语
简介

IPB Image

压缩码率:302kpbs(CBR)

专辑简介:

John Lennon,1940年10月9日出生于英国利物浦一个工人阶层家庭。Lennon的父亲在他只有3岁时就遗弃了妻子和儿子。因此,Lennon很小的时候就不得不寄宿在姨母家里,可能是由于失去了父亲的缘故,Lennon在姨母家一直是一个很不听话而且反抗性格极强的孩子。Lennon16岁时,姨母极力劝说他所在中学的校长,写了一封推荐信,使Lennon前往利物浦的艺术学校学习。他很快喜欢上了音乐,购买了一把吉它,并于1957年初在学校里组织了一个摇滚乐队,它正是Beatles乐队的前身。

1966年,来自日本的女艺术家大野洋子开个人画展的前一天,Lennon出现在画廊,看到在墙壁上“钉钉子”这部作品时,便问洋子可否也让他钉钉子?洋子开始说还没公开,不行。稍作考虑后,又说,如果你花上5先令,那要钉也可以。John Lennon想了想就回答说,那好,我想像付了5先令,那我就可以钉个想像中的钉子了吧?他们的爱情就这样开始了,因为样子觉得“啊,能如此幽默地回答,这人跟我有同样的感受”。1971年春天,Lennon和洋子移居美国纽约。Lennon很快便融入美国社会,他与名为“芝加哥七人团体”的激进组织打得火热,并非常热衷于谈论政治问题。就是在那年秋天,Lennon发行了他迄今为止最受欢迎的单曲"Imaging"。Lennon是一个坚定的反越战主义者,为了向世界发出这种呼声,他和洋子在阿姆斯特丹举行了著名的“为和平而卧床”(Bed-Inforpeace)行动,他们的口号是“给和平一个机会”,他们向全世界发出呼吁“武力不会对和平有任何帮助,任何人都可以通过躺在床上一星期而获得和平,在寻求和平的各种方法中这是最简单又最有效的。”Lennon还拒绝接受英国女皇颁发给他的奖金,以作为对英国帮助美国的抗议。

1980年12月8日,在纽约市区的Dakota公寓的一间办公室里,正在等候着Lennon的Hastings突然听到外面“砰砰砰”枪声响起,有人颤步跌爬在办公室的台阶上,脸部极端昏迷而恐怖——正是Lennon!他挣扎着几步就瘫倒在地,握在手里的磁带也洒落满地。震惊悲痛的Hastings小心翼翼地从因极度痛苦恐惧而扭曲变形了的Lennon的脸上摘下眼镜。然后解下他的领带当止血带,可是他却发现已经无处可敷:鲜血正从Lennon的胸部,嘴巴里喷流而出。站在外头守卫的门卫跑进来告诉Hastings说,那个袭击者已经将枪扔在路边了。Hastings马上追赶出去,可是他发现这毫无必要,因为那个枪击了Lennon的胖胖的年轻人此时安静地站在西区第72街道上,正读着小说《麦田的守望者》。两部警车呼啸而来,四名警察冲将而出,小心翼翼地抬起Lennon,放进警车,开往罗斯福医院。30分钟后,医院的通知书送到了公寓。John Lennon:40岁,父亲,丈夫,死亡。

原英文简介:

He was the rock legend whose songs - from Imagine to Give Peace A Chance - gave voice to a generation and whose shocking death reverberated around the world. Today The Mail on Sunday presents a unique John Lennon CD featuring 12 tracks representing his dynamic career. Don't miss this exclusive musical first...your John Lennon CD is FREE inside today's The Mail On Sunday.

封底图片和cd碟片分封面:

IPB ImageIPB Image

抓轨日志:

引用
Exact Audio Copy V0.99 prebeta 4 from 23. January 2008
EAC extraction logfile from 18. January 2009, 6:06

John Lennon / John Lennon (Prom - The Mail)
Used drive : HL-DT-STDVDRRW GSA-H30L Adapter: 0 ID: 1
Read mode : Secure
Utilize accurate stream : Yes
Defeat audio cache : Yes
Make use of C2 pointers : No
Read offset correction : 102
Overread into Lead-In and Lead-Out : No
Fill up missing offset samples with silence : Yes
Delete leading and trailing silent blocks : No
Null samples used in CRC calculations : Yes
Used interface : Installed external ASPI interface
Gap handling : Appended to previous track
Used output format : User Defined Encoder
Selected bitrate : 1024 kBit/s
Quality : High
Add ID3 tag : No
Command line compressor : C:\Program Files\Exact Audio Copy\Flac\flac.exe
Additional command line options : -8 -V -T "ARTIST=%a" -T "TITLE=%t" -T "ALBUM=%g" -T "DATE=%y" -T "TRACKNUMBER=%n" -T "GENRE=%m" -T "COMMENT=EAC FLAC -8-oan" %s
TOC of the extracted CD
Track | Start | Length | Start sector | End sector
---------------------------------------------------------
1 | 0:00.00 | 3:22.64 | 0 | 15213
2 | 3:22.64 | 4:15.04 | 15214 | 34342
3 | 7:37.68 | 4:30.37 | 34343 | 54629
4 | 12:08.30 | 4:12.56 | 54630 | 73585
5 | 16:21.11 | 4:38.36 | 73586 | 94471
6 | 20:59.47 | 2:17.15 | 94472 | 104761
7 | 23:16.62 | 4:48.69 | 104762 | 126430
8 | 28:05.56 | 4:01.04 | 126431 | 144509
9 | 32:06.60 | 3:35.31 | 144510 | 160665
10 | 35:42.16 | 3:23.37 | 160666 | 175927
11 | 39:05.53 | 4:52.35 | 175928 | 197862
12 | 43:58.13 | 3:20.15 | 197863 | 212877
Track 1

Filename C:\oan\01 - Power To The People.wav
Pre-gap length 0:00:02.00

Peak level 77.9 %
Track quality 99.9 %
Test CRC 7C9CDFE4
Copy CRC 7C9CDFE4
Track not present in AccurateRip database
Copy OK
Track 2
Filename C:\oan\02 - Jealous Guy.wav
Peak level 82.7 %
Track quality 100.0 %
Test CRC 20BF8FD7
Copy CRC 20BF8FD7
Track not present in AccurateRip database
Copy OK
Track 3
Filename C:\oan\03 - New York City.wav
Pre-gap length 0:00:01.78
Peak level 87.9 %
Track quality 100.0 %
Test CRC 78D1D7F5
Copy CRC 78D1D7F5
Track not present in AccurateRip database
Copy OK
Track 4
Filename C:\oan\04 - Mind Games.wav
Peak level 77.8 %
Track quality 100.0 %
Test CRC 95975288
Copy CRC 95975288
Track not present in AccurateRip database
Copy OK
Track 5
Filename C:\oan\05 - Bless You.wav

Peak level 89.1 %
Track quality 100.0 %
Test CRC D302C302
Copy CRC D302C302
Track not present in AccurateRip database
Copy OK
Track 6

Filename C:\oan\06 - Slippin?and Slidin?wav
Pre-gap length 0:00:01.85
Peak level 69.9 %
Track quality 100.0 %
Test CRC F5E70A39
Copy CRC F5E70A39
Track not present in AccurateRip database
Copy OK
Track 7
Filename C:\oan\07 - Here We Go Again.wav
Pre-gap length 0:00:01.54
Peak level 97.4 %
Track quality 100.0 %
Test CRC D3F2161A
Copy CRC D3F2161A
Track not present in AccurateRip database
Copy OK
Track 8
Filename C:\oan\08 - Beautiful Boy.wav
Pre-gap length 0:01:09.28
Peak level 89.1 %
Track quality 99.9 %
Test CRC CD3F7270
Copy CRC CD3F7270
Track not present in AccurateRip database
Copy OK
Track 9
Filename C:\oan\09 - Nobody Told Me.wav
Pre-gap length 0:00:00.06
Peak level 70.7 %
Track quality 100.0 %
Test CRC 10B03C0F
Copy CRC 10B03C0F
Track not present in AccurateRip database
Copy OK
Track 10
Filename C:\oan\10 - Imagine (Take 1).wav
Pre-gap length 0:00:01.69
Peak level 84.1 %
Track quality 100.0 %
Test CRC 45AC7924
Copy CRC 45AC7924
Track not present in AccurateRip database
Copy OK
Track 11
Filename C:\oan\11 - Give Peace A Chance.wav
Pre-gap length 0:00:01.64
Peak level 84.9 %
Track quality 100.0 %
Test CRC CA33D88E
Copy CRC CA33D88E
Track not present in AccurateRip database
Copy OK
Track 12
Filename C:\oan\12 - Grow Old With Me.wav
Peak level 79.3 %
Track quality 100.0 %
Test CRC EE9067C8
Copy CRC EE9067C8
Track not present in AccurateRip database
Copy OK
None of the tracks are present in the AccurateRip database
No errors occurred
End of status report



专辑曲目

01.Power To The People
02.Jealous Guy
03.New York City
04.Mind Games
05.Bless You
06.Slippin?and Slidin?
07.Here We Go Again
08.Beautiful Boy
09.Nobody Told Me
10.Imagine (Take 1)
11.Give Peace A Chance
12.Grow Old With Me

正在读取……

这里是其它用户补充的资源(我也要补充):

暂无补充资源
正在加载,请稍等...

点击查看所有59网友评论

 

(?) [公告]留口水、评论相关规则 | [活动]每日签到 轻松领取电驴经验

    小贴士:
  1. 类似“顶”、“沙发”之类没有营养的文字,对勤劳贡献的楼主来说是令人沮丧的反馈信息。
  2. 提问之前请再仔细看一遍楼主的说明,或许是您遗漏了。
  3. 勿催片。请相信驴友们对分享是富有激情的,如果确有更新版本,您一定能搜索到。
  4. 请勿到处挖坑绊人、招贴广告。既占空间让人厌烦,又没人会搭理,于人于己都无利。
  5. 如果您发现自己的评论不见了,请参考以上4条。