v

您的位置:VeryCD音乐欧美音乐

音乐资源事务区


Frampton,Peter -《Frampton Comes Alive!》25th Anniversary Deluxe Edition[WV]

  • 状态: 精华资源
  • 摘要:
    音乐风格摇滚
    发行时间2001年
    地区英国
    语言英语
  • 时间: 2009/07/03 17:02:23 发布 | 2009/07/03 21:49:33 更新
  • 分类: 音乐  欧美音乐 

czp568

精华资源: 343

全部资源: 344

相关: 分享到新浪微博   转播到腾讯微博   分享到开心网   分享到人人   分享到QQ空间   订阅本资源RSS更新   美味书签  subtitle
该内容尚未提供权利证明,无法提供下载。
专辑英文名Frampton Comes Alive!
音乐风格摇滚
资源格式WV
版本25th Anniversary Deluxe Edition
发行时间2001年
地区英国
语言英语
简介

IPB Image

专辑简介

专辑简介:

摇滚天才Peter Frampton 1950年生于英国的贝肯汉姆,16岁就开始了职业音乐生涯,1968年他被英国几家主要的音乐刊物作为“明日之星”评为封面人物。但是Peter Frampton很快就从青少年音乐偶像梦中醒悟过来,开始追寻个性化的更轻柔的浪漫摇滚风格。一首“Baby, I Love Your Way”(宝贝我爱你的方式)是他红遍全球的情歌经典。 Peter Frampton最大的吸引力在于他的吉他演奏,这成为他个人专辑的主要风格,他所写得旋律与歌词都以浪漫为中心,表现了充满想象力的吉他演奏与歌曲整体完美结合的能力。直到1974年他在美国立足之后,两年中Peter Frampton被美国评论称为70年代的吉他英雄。1976年他推出的现场专辑《Frampton Come Alive》在全球的销量达到了1500万张。此后,因为他在Robert Stigwood导演的灾难性的电影《佩珀军士之孤独之心俱乐部乐队》中的表演以及一次交通事故的受伤给他长期顺利的事业发展带来了不可估量的负面影响。 1984年,Peter Frampton带着巡演的疲惫回到家乡英国,沉寂了三年之后他作为主音吉他手出现在David Bowie的唱片里,一直到1994年才又出版了自己的唱片。Peter Frampton留给乐迷印象最深的就是他浪漫的吉他演奏和浪漫的歌曲,就像那首“Lines On My Face”。 重温Peter Frampton经典曲目,就在《环球大师珍藏系列》!

原英文简介:

Of all of Universal's Deluxe Editions, Frampton Comes Alive has the least amount of bonus material. Perhaps that's because the album originally was a double record, so it isn't opened up over two discs the way Blind Faith and What's Goin' On are. Or perhaps it's because there just wasn't much to add to what's essentially a concert performance. Either way, there are just four extra tracks here: three worked into the sequence of the concert ("Just the Time of Year," "Nowhere's Too Far for My Baby," and "White Sugar"), with a radio performance of "Day's Dawning" added at the end. These are all nice additions for the hardcore, but changing the sequencing of the record changes its impact subtly, making it a little less addictive. So, this isn't quite appealing for the casuals, and doesn't quite have enough to make it absolutely necessary for diehards -- although, if they pick it up, they'll likely be quite satisfied by the first-class sound and beautiful packaging. ~ Stephen Thomas Erlewine, All Music Guide

抓轨日志:

引用
Exact Audio Copy V0.99 prebeta 4 from 23. January 2008
EAC 抓取日志文件从3. 七月 2009, 11:53
未知艺术家 / 未知标题
使用驱动器 :SNEJER Y78DQZKTIBK5 Adapter: 3 ID: 0
读取模式 : 暴发
读取偏移校正 : 0
读取 Lead-In 和 Lead-Out : 否
用静音填充抓取中丢失偏移的采样 : 是
去除首尾静音块 : 否
在 CRC 计算中使用了空样本 : 否
已用接口 : Win NT 及 2000 本地 Win32 接口

所用输出格式 : 内部 WAV 函数
样本格式 : 44.100 Hz;16 Bit;立体声
被抓轨 CD 的 TOC
音轨 | 开始 | 长度 | 起始扇区 | 结尾扇区
--------------------------------------------------
1 | 0:00.00 | 4:49.62 | 0 | 21736
2 | 4:49.62 | 5:46.40 | 21737 | 47726
3 | 10:36.27 | 13:46.18 | 47727 | 109694
4 | 24:22.45 | 3:29.72 | 109695 | 125441
5 | 27:52.42 | 4:43.49 | 125442 | 146715
6 | 32:36.16 | 7:40.39 | 146716 | 181254
7 | 40:16.55 | 3:37.11 | 181255 | 197540
范围状态及错误
已选择范围
文件名 D:\My Documents\未知艺术家 - 未知标题.wav
峰值电平 25.0 %
复制 CRC B0EF1EC0
复制成功
没有错误发生
状态报告结尾

Exact Audio Copy V0.99 prebeta 4 from 23. January 2008
EAC 抓取日志文件从3. 七月 2009, 15:42
未知艺术家 / 未知标题
使用驱动器 :SNEJER Y78DQZKTIBK5 Adapter: 3 ID: 0
读取模式 : 暴发
读取偏移校正 : 0
读取 Lead-In 和 Lead-Out : 否
用静音填充抓取中丢失偏移的采样 : 是
去除首尾静音块 : 否
在 CRC 计算中使用了空样本 : 否
已用接口 : Win NT 及 2000 本地 Win32 接口
所用输出格式 : 内部 WAV 函数
样本格式 : 44.100 Hz;16 Bit;立体声
被抓轨 CD 的 TOC
音轨 | 开始 | 长度 | 起始扇区 | 结尾扇区
--------------------------------------------------
1 | 0:00.00 | 5:56.12 | 0 | 26711
2 | 5:56.12 | 5:43.32 | 26712 | 52468
3 | 11:39.44 | 6:59.30 | 52469 | 83923
4 | 18:38.74 | 4:32.36 | 83924 | 104359
5 | 23:11.35 | 4:03.32 | 104360 | 122616
6 | 27:14.67 | 2:57.14 | 122617 | 135905
7 | 30:12.06 | 4:21.33 | 135906 | 155513
8 | 34:33.39 | 1:34.30 | 155514 | 162593
9 | 36:07.69 | 3:08.27 | 162594 | 176720
10 | 39:16.21 | 4:40.70 | 176721 | 197790
11 | 43:57.16 | 7:16.41 | 197791 | 230531
范围状态及错误
已选择范围
文件名 D:\My Documents\未知艺术家 - 未知标题1.wav
峰值电平 25.0 %
复制 CRC 6F48326A
复制成功
没有错误发生
状态报告结尾



专辑曲目

DISC 1
01.Introduction/Somethin's Happening
02.Doobie Wah
03.Lines On My Face
04.Show Me The Way
05.It's A Plain Shame
06.Wind Of Change
07.Just The Time Of The Year
08.Penny For Your Thoughts
09.All I Want To Be (Is By Your Side)
10.Baby, I Love Your Way
11.I Wanna Go To The Sun

DISC 2

01.Nowhere's Too Far For My Baby
02.(I'll Give You) Money
03.Do You Feel Like We Do
04.Shine On
05.White Sugar
06.Jumping Jack Flash
07.Days Dawning

正在读取……

这里是其它用户补充的资源(我也要补充):

暂无补充资源
正在加载,请稍等...

点击查看所有7网友评论

 

(?) [公告]留口水、评论相关规则 | [活动]每日签到 轻松领取电驴经验

    小贴士:
  1. 类似“顶”、“沙发”之类没有营养的文字,对勤劳贡献的楼主来说是令人沮丧的反馈信息。
  2. 提问之前请再仔细看一遍楼主的说明,或许是您遗漏了。
  3. 勿催片。请相信驴友们对分享是富有激情的,如果确有更新版本,您一定能搜索到。
  4. 请勿到处挖坑绊人、招贴广告。既占空间让人厌烦,又没人会搭理,于人于己都无利。
  5. 如果您发现自己的评论不见了,请参考以上4条。