v

您的位置:VeryCD音乐欧美音乐

音乐资源事务区


The Breeders -《The Last Splash》[APE]

  • 状态: 精华资源
  • 摘要:
    音乐风格摇滚
    发行时间1993年
    地区美国
    语言英语
  • 时间: 2009/07/01 17:49:22 发布 | 2009/07/03 10:47:28 更新
  • 分类: 音乐  欧美音乐 

tompatti

精华资源: 13

全部资源: 13

相关: 分享到新浪微博   转播到腾讯微博   分享到开心网   分享到人人   分享到QQ空间   订阅本资源RSS更新   美味书签  subtitle
该内容尚未提供权利证明,无法提供下载。
专辑英文名The Last Splash
歌手The Breeders
音乐风格摇滚
资源格式APE
发行时间1993年
地区美国
语言英语
简介

IPB Image

专辑介绍:

the Breeders的第二张专辑《Last Splash》带给了他们决定性的胜利,不但让他们成为另类摇滚领域中的明星,其锋芒甚至盖过Kim Deal的前乐队the Pixies,但作为90年代定义性的另类摇滚专辑之一,这张专辑又是毁誉参半——它可以好的没话说,尤其是几首单曲Cannonball、Divine Hammer以及Saints带来的专辑中最美妙的时刻,但遗憾的是也有些敷衍之作"S.O.S." and "Flipside",这是一张不平衡的专辑,可以同时带来灵感与愤怒。

介绍转自 musette 发布的 mp3格式资源

AMG Review:
Thanks to good timing and some great singles, the Breeders' second album, Last Splash, turned them into the alternative rock stars that Kim Deal's former band, the Pixies, always seemed on the verge of becoming. Building on Safari's driving, polished sound, Last Splash is half-brilliant singles and half-unfinished, uninspired ideas. When it's good, it's very, very good: "Cannonball"'s instantly catchy collage of bouncy bass, rhythmic stops and starts, and singsong vocals; the sweetly sexy "Divine Hammer"; and swaggering "Saints" are among the Breeders' finest moments, and deserved all of the airplay they received. And the charming country-pop of "Drivin' on 9," "I Just Wanna Get Along"'s spiky punk-pop, and the bittersweet "Invisible Man" proved Last Splash had a bit of depth. But underdeveloped snippets such as "Roi" and "No Aloha" drag down the album's momentum; likewise, the band tries to stretch their range on the rambling, cryptic "Mad Lucas" and "Hag," but neither quite comes together as a full-fledged song. Though instrumentals such as "S.O.S." and "Flipside" showcase the Breeders' chops and some nifty production tricks, they feel like filler; worst of all, Last Splash features an inferior, plodding new version of Safari's soaring "Do You Love Me Now" that emphasizes the album's unevenness. One of the definitive alternative rock albums of the '90s, Last Splash is equally inspired and infuriating; that it was the Breeders' last album of that decade makes it even more frustrating. ~ Heather Phares, All Music Guide

EAC log:
Exact Audio Copy V0.99 prebeta 5 from 4. May 2009

EAC extraction logfile from 20. June 2009, 22:15

The Breeders / Last Splash

Used drive : HL-DT-STDVD-ROM GDR8163B Adapter: 3 ID: 0

Read mode : Secure
Utilize accurate stream : Yes
Defeat audio cache : Yes
Make use of C2 pointers : No

Read offset correction : 102
Overread into Lead-In and Lead-Out : No
Fill up missing offset samples with silence : Yes
Delete leading and trailing silent blocks : No
Null samples used in CRC calculations : No
Used interface : Native Win32 interface for Win NT & 2000

Used output format : Internal WAV Routines
Sample format : 44.100 Hz; 16 Bit; Stereo

TOC of the extracted CD

Track | Start | Length | Start sector | End sector
---------------------------------------------------------
1 | 0:00.32 | 1:56.00 | 32 | 8731
2 | 1:56.32 | 3:33.53 | 8732 | 24759
3 | 5:30.10 | 2:48.22 | 24760 | 37381
4 | 8:18.32 | 2:07.15 | 37382 | 46921
5 | 10:25.47 | 4:11.40 | 46922 | 65786
6 | 14:37.12 | 3:01.68 | 65787 | 79429
7 | 17:39.05 | 1:59.35 | 79430 | 88389
8 | 19:38.40 | 1:44.22 | 88390 | 96211
9 | 21:22.62 | 4:36.63 | 96212 | 116974
10 | 25:59.50 | 2:41.37 | 116975 | 129086
11 | 28:41.12 | 1:31.48 | 129087 | 135959
12 | 30:12.60 | 2:55.57 | 135960 | 149141
13 | 33:08.42 | 2:32.05 | 149142 | 160546
14 | 35:40.47 | 3:22.15 | 160547 | 175711
15 | 39:02.62 | 0:42.23 | 175712 | 178884

Range status and errors

Selected range

Filename D:\Music_Part_II\The Breeders - Last Splash.wav

Peak level 97.7 %
Range quality 100.0 %
Copy CRC A971F3B2
Copy OK

No errors occurred

End of status report



专辑曲目

1. New Year
2. Cannonball
3. Invisible Man
4. No Aloha
5. Roi
6. Do You Love Me Now?
7. Flipside
8. I Just Wanna Get Along
9. Mad Lucas
10. Divine Hammer
11. S.O.S.
12. Hag
13. Saints
14. Drivin' On 9
15. Roi (Reprise)

正在读取……

这里是其它用户补充的资源(我也要补充):

暂无补充资源
正在加载,请稍等...

点击查看所有18网友评论

 

(?) [公告]留口水、评论相关规则 | [活动]每日签到 轻松领取电驴经验

    小贴士:
  1. 类似“顶”、“沙发”之类没有营养的文字,对勤劳贡献的楼主来说是令人沮丧的反馈信息。
  2. 提问之前请再仔细看一遍楼主的说明,或许是您遗漏了。
  3. 勿催片。请相信驴友们对分享是富有激情的,如果确有更新版本,您一定能搜索到。
  4. 请勿到处挖坑绊人、招贴广告。既占空间让人厌烦,又没人会搭理,于人于己都无利。
  5. 如果您发现自己的评论不见了,请参考以上4条。