v

您的位置:VeryCD音乐欧美音乐

音乐资源事务区


John Mclaughlin -《Electric Guitarist》[APE]

  • 状态: 精华资源
  • 摘要:
    音乐风格爵士
    发行时间1978年
    地区美国
    语言英语
  • 时间: 2009/06/23 22:49:09 发布 | 2009/06/25 18:28:25 更新
  • 分类: 音乐  欧美音乐 

tompatti

精华资源: 13

全部资源: 13

相关: 分享到新浪微博   转播到腾讯微博   分享到开心网   分享到人人   分享到QQ空间   订阅本资源RSS更新   美味书签  subtitle
该内容尚未提供权利证明,无法提供下载。
专辑英文名Electric Guitarist
音乐风格爵士
资源格式APE
发行时间1978年
地区美国
语言英语
简介

IPB Image

专辑简介:

在Rolling Stone杂志“100位吉他大师”榜上排名49位的John Mclaughlin,以Jazz Fusion风格著称。John Mclaughlin曾与其他JAZZ大家,比如Tony Williams,Mile Davis合作组队出品多张Jazz-Fusion乐风唱片。John在70年代自组的大乐队“The Mahavishnu Orchestra”, 拥有着华丽的技术和融合了电子爵士、摇滚、东方和印度文化的曲风。John Mclaughlin最著名的就是为Fusion-Jazz的发展引入,融合了佛拉明戈吉它。印度塔布拉手鼓大师Zakir Hussain 评价John Mclaughlin为“当代最伟大和最重要的音乐家”。

以上文字翻译自Wikipedia

补充cue与log文件:
Exact Audio Copy V0.99 prebeta 5 from 4. May 2009

EAC extraction logfile from 23. June 2009, 0:48

John McLaughlin / Electric Guitarist

Used drive : HL-DT-STDVD-ROM GDR8163B Adapter: 3 ID: 0

Read mode : Secure
Utilize accurate stream : Yes
Defeat audio cache : Yes
Make use of C2 pointers : No

Read offset correction : 102
Overread into Lead-In and Lead-Out : No
Fill up missing offset samples with silence : Yes
Delete leading and trailing silent blocks : No
Null samples used in CRC calculations : No
Used interface : Native Win32 interface for Win NT & 2000

Used output format : Internal WAV Routines
Sample format : 44.100 Hz; 16 Bit; Stereo


TOC of the extracted CD

Track | Start | Length | Start sector | End sector
---------------------------------------------------------
1 | 0:00.00 | 5:46.67 | 0 | 26016
2 | 5:46.67 | 7:02.33 | 26017 | 57699
3 | 12:49.25 | 6:53.02 | 57700 | 88676
4 | 19:42.27 | 7:41.50 | 88677 | 123301
5 | 27:24.02 | 4:43.08 | 123302 | 144534
6 | 32:07.10 | 3:23.70 | 144535 | 159829
7 | 35:31.05 | 3:25.05 | 159830 | 175209


Range status and errors

Selected range

Filename D:\Music_Part_II\John McLaughlin - Electric Guitarist.wav

Peak level 79.7 %
Range quality 99.9 %
Copy CRC 411A6E0B
Copy OK

No errors occurred

End of status report

REM GENRE Fusion
REM DATE 1978
REM DISCID 5D092007
REM COMMENT "ExactAudioCopy v0.99pb5"
PERFORMER "John McLaughlin"
TITLE "Electric Guitarist"
FILE "John.McLaughlin.-.[Electric.Guitarist].专辑.(ape).ape" WAVE
TRACK 01 AUDIO
TITLE "New York on My Mind"
PERFORMER "John McLaughlin"
INDEX 01 00:00:00
TRACK 02 AUDIO
TITLE "Friendship"
PERFORMER "John McLaughlin"
INDEX 00 05:46:57
INDEX 01 05:46:67
TRACK 03 AUDIO
TITLE "Every Tear From Every Eye"
PERFORMER "John McLaughlin"
INDEX 00 12:47:02
INDEX 01 12:49:25
TRACK 04 AUDIO
TITLE "Do You Hear the Voices You Left Behind?"
PERFORMER "John McLaughlin"
INDEX 00 19:41:17
INDEX 01 19:42:27
TRACK 05 AUDIO
TITLE "Are You the One? Are You the One?"
PERFORMER "John McLaughlin"
INDEX 00 27:22:45
INDEX 01 27:24:02
TRACK 06 AUDIO
TITLE "Phenomenon: Compulsion"
PERFORMER "John McLaughlin"
INDEX 00 32:06:72
INDEX 01 32:07:10
TRACK 07 AUDIO
TITLE "My Foolish Heart"
PERFORMER "John McLaughlin"
INDEX 00 35:30:51
INDEX 01 35:31:05



专辑曲目

1. New York On My Mind 5:47
2. Friendhsip 7:02
3. Every Tear From Every Eye 6:53
4. Do You Hear the Voices You Left Behind? 7:41
5. Are You The One? Are You The One? 4:43
6. Phenomenon: Compulsion 3:23
7. My Foolish Heart 3:26

正在读取……

这里是其它用户补充的资源(我也要补充):

暂无补充资源
正在加载,请稍等...

点击查看所有8网友评论

 

(?) [公告]留口水、评论相关规则 | [活动]每日签到 轻松领取电驴经验

    小贴士:
  1. 类似“顶”、“沙发”之类没有营养的文字,对勤劳贡献的楼主来说是令人沮丧的反馈信息。
  2. 提问之前请再仔细看一遍楼主的说明,或许是您遗漏了。
  3. 勿催片。请相信驴友们对分享是富有激情的,如果确有更新版本,您一定能搜索到。
  4. 请勿到处挖坑绊人、招贴广告。既占空间让人厌烦,又没人会搭理,于人于己都无利。
  5. 如果您发现自己的评论不见了,请参考以上4条。