v

您的位置:VeryCD音乐演唱会

音乐资源事务区


Barbra Streisand(芭芭拉史翠珊) -《Live In Concert 2006》[BDRip]

  • 状态: 精华资源
  • 摘要:
    发行时间2007年05月08日
    语言英语
  • 时间: 2009/06/22 10:44:52 发布 | 2009/06/23 18:35:23 更新
  • 分类: 音乐  演唱会 

nimo123321

精华资源: 577

全部资源: 578

相关: 分享到新浪微博   转播到腾讯微博   分享到开心网   分享到人人   分享到QQ空间   订阅本资源RSS更新   美味书签  subtitle
该内容尚未提供权利证明,无法提供下载。
专辑中文名Live In Concert 2006
别名2006年演唱会
资源格式BDRip
发行时间2007年05月08日
地区美国
语言英语
简介

IPB Image

内容介绍:

2006年,美国多栖明星,流行歌坛的常青树巴巴拉·史翠姗 (Barbra Streisand)在美国各大城市举办了一次巡回演出。这套双张现场专辑《Streisand: Live in Concert 2006》记录的就是那次频频打破各地票房纪录的巡演。在美国上市第一周,本周首周上榜,这张《Streisand: Live in Concert 2006》共售出了六万张,排在当周Billboard 200专辑榜的第七位。据统计,《Streisand: Live in Concert 2006》已经是Barbra Streisand第29张打入美国专辑榜前十名的专辑。

  在举办这次巡演的时候,Barbra Streisand已经64岁了,但她在现场的表演依依然是那么的优雅,这一点非常令人敬佩。对于Barbra Streisand的忠实歌迷来说,《Streisand: Live in Concert 2006》最大的特别之处可能是它“放弃了”一些脍炙人口的名曲,如《Memory》,《Woman In Love》。这样选歌不仅没有令铁杆歌迷反感,反而得到了很多歌迷的支持。因为他们买这张现场专辑不会跟手中已经有的CD有太多的重复曲目。相反,本张现场专辑收录了一些普通的精选集中不经常出现的歌,这其中包括从70年代起Barbra Streisand就很少再唱的《(Have I Stayed) Too Long At the Fair?》和《Unusual Way》,这两首歌都出自百老汇音乐剧《Nine》。另外,细心的歌迷还会发现,本张现场专辑的两张CD中都有几段Dialogue的内容,通过这些对话的部分,歌迷们可以更深刻的体会到Barbra Streisand的优雅。

  在几十年的音乐生涯中,Barbra Streisand留下的经典之作太多。虽然这张《Streisand: Live in Concert 2006》选的是她一些相对不太热门的曲目,但专辑中处处透出的仍是Barbra Streisand那令人折服的永恒魅力。KFC MAN/文

引用
Barbra Streisand's status as one of the most successful singers of her generation is all the more remarkable not only because her popularity has been achieved in the face of a dominant musical trend -- rock roll -- which she did not follow; but also because, despite an amazing singing voice that has enthralled practically anyone who has heard it, she has always used singing as a mere stepping stone to other careers, as a stage and film actress and as a film director.


代码
Format                           : AVI
Format/Info                      : Audio Video Interleave
File size                        : 1.36 GiB
Duration                         : 1h 45mn
Overall bit rate                 : 1 854 Kbps

Video
Format                           : MPEG-4 Visual
Format profile                   : Streaming Video@L1
Format settings, BVOP            : Yes
Format settings, QPel            : Yes
Format settings, GMC             : No warppoints
Format settings, Matrix          : Default
Codec ID                         : XVID
Codec ID/Hint                    : XviD
Duration                         : 1h 45mn
Bit rate                         : 1 205 Kbps
Width                            : 720 pixels
Height                           : 400 pixels
Display aspect ratio             : 16/9
Frame rate                       : 23.976 fps
Resolution                       : 24 bits
Colorimetry                      : 4:2:0
Scan type                        : Progressive
Bits/(Pixel*Frame)               : 0.174
Stream size                      : 907 MiB (65%)
Writing library                  : XviD 1.2.1 (UTC 2008-12-04)

Audio
Format                           : AC-3
Format/Info                      : Audio Coding 3
Codec ID                         : 2000
Duration                         : 1h 45mn
Bit rate mode                    : Constant
Bit rate                         : 640 Kbps
Channel(s)                       : 6 channels
Channel positions                : Front: L C R, Surround: L R, LFE
Sampling rate                    : 48.0 KHz
Stream size                      : 482 MiB (35%)
Alignment                        : Split accross interleaves
Interleave, duration             : 42 ms (1.00 video frame)
Interleave, preload duration     : 500 ms


IPB Image

IPB Image

IPB Image

IPB Image

IPB Image



专辑曲目

01. Funny Girl Broadway Overture
02. Starting Here, Starting Now
03. Opening Remarks
04. Down With Love
05. The Way We Were
06. Songwriting (Dialogue)
07. Ma Premiere Chanson
08. Evergreen
09. Come Rain Or Come Shine
10. Funny Girl(dialogue)
11. Funny Girl
12. The Music That Makes Me Dance
13. My Man
14. People(dialogue)
15. People
16. Entr'acte
17. The Music Of The Night
18. Jason's Theme
19. Carefully Taught/Children Will Listen
20. Unusual Way
21. What Are You Doing The Rest Of Your Life?
22. Happy Days Are Here Again
23. (Have I Stayed) Too Long At The Fair?
24. William Saroyan (Dialogue)
25. The Time Of Your Life
26. A Cockeyed Optimist
27. Somewhere(dialogue)
28. Somewhere
29. My Shining Hour
30. Don't Rain On My Parade
31. Smile

正在读取……

这里是其它用户补充的资源(我也要补充):

暂无补充资源
正在加载,请稍等...

点击查看所有39网友评论

 

(?) [公告]留口水、评论相关规则 | [活动]每日签到 轻松领取电驴经验

    小贴士:
  1. 类似“顶”、“沙发”之类没有营养的文字,对勤劳贡献的楼主来说是令人沮丧的反馈信息。
  2. 提问之前请再仔细看一遍楼主的说明,或许是您遗漏了。
  3. 勿催片。请相信驴友们对分享是富有激情的,如果确有更新版本,您一定能搜索到。
  4. 请勿到处挖坑绊人、招贴广告。既占空间让人厌烦,又没人会搭理,于人于己都无利。
  5. 如果您发现自己的评论不见了,请参考以上4条。