v

您的位置:VeryCD音乐欧美音乐

音乐资源事务区


The Velvet Underground -《The Velvet Underground & Nico [Deluxe Edition]》Disc 2为VU自己混音的原始单声道母带[FLAC]

  • 状态: 精华资源
  • 摘要:
    音乐风格摇滚
    发行时间1967年
    地区美国
    语言英语
  • 时间: 2009/06/21 14:48:35 发布 | 2009/06/21 17:22:47 更新
  • 分类: 音乐  欧美音乐 

tompatti

精华资源: 13

全部资源: 13

相关: 分享到新浪微博   转播到腾讯微博   分享到开心网   分享到人人   分享到QQ空间   订阅本资源RSS更新   美味书签  subtitle
该内容尚未提供权利证明,无法提供下载。
专辑英文名The Velvet Underground & Nico [Deluxe Edition]
音乐风格摇滚
资源格式FLAC
版本Disc 2为VU自己混音的原始单声道母带
发行时间1967年
地区美国
语言英语
简介

IPB Image
IPB Image

喜欢VU的朋友怎能错过其自己混音的The Velvet Underground & Nico原版单声道母带。

真正的地下音乐当然只是单声道的!哪来什么立体声。

简介

发布的是双唱片版本。Disc 1包含了<VU&Nico>和几首选自<Nico:Chelsea Girl>的曲子。
DISC 2 就是当年VU花了3000美金,4天时间,自己混音弄出来的"heavyweight" 原始单声道母带。后来由MGM对该单声道母带进行"sweetening" 和"softening",并立体声混音处理之后才正式发行了VU的这张首张专辑。

EAC LOGs

Exact Audio Copy V0.99 prebeta 5 from 4. May 2009

EAC extraction logfile from 21. June 2009, 13:30

The Velvet Underground / The Velvet Underground & Nico [Deluxe Edition] (Disc 1)

Used drive : HL-DT-STDVD-ROM GDR8163B Adapter: 3 ID: 0

Read mode : Secure
Utilize accurate stream : Yes
Defeat audio cache : Yes
Make use of C2 pointers : No

Read offset correction : 102
Overread into Lead-In and Lead-Out : No
Fill up missing offset samples with silence : Yes
Delete leading and trailing silent blocks : No
Null samples used in CRC calculations : No
Used interface : Native Win32 interface for Win NT & 2000

Used output format : User Defined Encoder
Selected bitrate : 768 kBit/s
Quality : High
Add ID3 tag : Yes
Command line compressor : C:\Program Files\Exact Audio Copy\FLAC\FLAC.EXE
Additional command line options : -6 -V -T "ARTIST=%a" -T "TITLE=%t" -T "ALBUM=%g" -T "DATE=%y" -T "TRACKNUMBER=%n" -T "GENRE=%m" -T "COMMENT=%e" %s -o %d


TOC of the extracted CD

Track | Start | Length | Start sector | End sector
---------------------------------------------------------
1 | 0:00.00 | 2:55.68 | 0 | 13192
2 | 2:55.68 | 4:39.65 | 13193 | 34182
3 | 7:35.58 | 2:39.05 | 34183 | 46112
4 | 10:14.63 | 5:12.50 | 46113 | 69562
5 | 15:27.38 | 4:22.55 | 69563 | 89267
6 | 19:50.18 | 5:59.72 | 89268 | 116264
7 | 25:50.15 | 7:12.48 | 116265 | 148712
8 | 33:02.63 | 2:41.27 | 148713 | 160814
9 | 35:44.15 | 2:14.00 | 160815 | 170864
10 | 37:58.15 | 3:11.50 | 170865 | 185239
11 | 41:09.65 | 7:51.38 | 185240 | 220602
12 | 49:01.28 | 4:28.37 | 220603 | 240739
13 | 53:29.65 | 3:22.18 | 240740 | 255907
14 | 56:52.08 | 8:06.25 | 255908 | 292382
15 | 64:58.33 | 7:28.50 | 292383 | 326032
16 | 72:27.08 | 5:06.50 | 326033 | 349032


Range status and errors

Selected range

Filename D:\Music_Part_II\The Velvet Underground - The Velvet Underground & Nico [Deluxe Edition] (Disc 1).wav

Peak level 100.0 %
Range quality 100.0 %
Copy CRC 887CB9A9
Copy OK

No errors occurred


AccurateRip summary

Track 1 accurately ripped (confidence 42) [56847D9F]
Track 2 accurately ripped (confidence 41) [DDE3ACDF]
Track 3 accurately ripped (confidence 42) [85413BE3]
Track 4 accurately ripped (confidence 40) [3B49D1A3]
Track 5 accurately ripped (confidence 41) [6CF46770]
Track 6 accurately ripped (confidence 41) [C47F3684]
Track 7 accurately ripped (confidence 41) [42379C74]
Track 8 accurately ripped (confidence 41) [91F7F8D2]
Track 9 accurately ripped (confidence 41) [340ABA48]
Track 10 accurately ripped (confidence 41) [C1969CE0]
Track 11 accurately ripped (confidence 41) [9463A824]
Track 12 accurately ripped (confidence 39) [98EB5295]
Track 13 accurately ripped (confidence 40) [AA7B516B]
Track 14 accurately ripped (confidence 39) [DC5198DE]
Track 15 accurately ripped (confidence 38) [0AD48C4A]
Track 16 accurately ripped (confidence 37) [86986760]

All tracks accurately ripped

End of status report

Exact Audio Copy V0.99 prebeta 5 from 4. May 2009

EAC extraction logfile from 21. June 2009, 13:42

The Velvet Underground / TThe Velvet Underground & Nico [Deluxe Edition] (Disc 2)

Used drive : HL-DT-STDVD-ROM GDR8163B Adapter: 3 ID: 0

Read mode : Secure
Utilize accurate stream : Yes
Defeat audio cache : Yes
Make use of C2 pointers : No

Read offset correction : 102
Overread into Lead-In and Lead-Out : No
Fill up missing offset samples with silence : Yes
Delete leading and trailing silent blocks : No
Null samples used in CRC calculations : No
Used interface : Native Win32 interface for Win NT & 2000

Used output format : User Defined Encoder
Selected bitrate : 768 kBit/s
Quality : High
Add ID3 tag : Yes
Command line compressor : C:\Program Files\Exact Audio Copy\FLAC\FLAC.EXE
Additional command line options : -6 -V -T "ARTIST=%a" -T "TITLE=%t" -T "ALBUM=%g" -T "DATE=%y" -T "TRACKNUMBER=%n" -T "GENRE=%m" -T "COMMENT=%e" %s -o %d


TOC of the extracted CD

Track | Start | Length | Start sector | End sector
---------------------------------------------------------
1 | 0:00.00 | 2:57.10 | 0 | 13284
2 | 2:57.10 | 4:47.10 | 13285 | 34819
3 | 7:44.20 | 2:39.05 | 34820 | 46749
4 | 10:23.25 | 5:13.55 | 46750 | 70279
5 | 15:37.05 | 4:25.35 | 70280 | 90189
6 | 20:02.40 | 6:01.32 | 90190 | 117296
7 | 26:03.72 | 7:14.23 | 117297 | 149869
8 | 33:18.20 | 2:42.70 | 149870 | 162089
9 | 36:01.15 | 2:16.53 | 162090 | 172342
10 | 38:17.68 | 3:14.32 | 172343 | 186924
11 | 41:32.25 | 7:57.03 | 186925 | 222702
12 | 49:29.28 | 2:53.17 | 222703 | 235694
13 | 52:22.45 | 2:18.10 | 235695 | 246054
14 | 54:40.55 | 2:59.43 | 246055 | 259522
15 | 57:40.23 | 2:37.69 | 259523 | 271366


Range status and errors

Selected range

Filename D:\Music_Part_II\The Velvet Underground - TThe Velvet Underground & Nico [Deluxe Edition] (Disc 2).wav

Peak level 100.0 %
Range quality 100.0 %
Copy CRC 2A1F25B6
Copy OK

No errors occurred


AccurateRip summary

Track 1 accurately ripped (confidence 38) [B5D2F37C]
Track 2 accurately ripped (confidence 38) [EDE617E7]
Track 3 accurately ripped (confidence 38) [7D699931]
Track 4 accurately ripped (confidence 38) [AD6C53AE]
Track 5 accurately ripped (confidence 38) [F1C5F0E0]
Track 6 accurately ripped (confidence 38) [98705BE7]
Track 7 accurately ripped (confidence 37) [5E72FBAB]
Track 8 accurately ripped (confidence 36) [1DE2DACD]
Track 9 accurately ripped (confidence 38) [4F9EECF6]
Track 10 accurately ripped (confidence 39) [35A42950]
Track 11 accurately ripped (confidence 37) [619DFBB1]
Track 12 accurately ripped (confidence 41) [9B8BDE2C]
Track 13 accurately ripped (confidence 41) [FD29789E]
Track 14 accurately ripped (confidence 41) [93397D76]
Track 15 accurately ripped (confidence 40) [214065B4]

All tracks accurately ripped

End of status report



专辑曲目

DISC 1: (strereo version)
1. Sunday Morning 2:55
2. I'm Waiting For The Man 4:39
3. Femme Fatale 2:39
4. Venus In Furs 5:12
5. Run Run Run 4:22
6. All Tomorrow's Parties 5:59
7. Heroin 7:12
8. There She Goes Again 2:41
9. I'll Be Your Mirror 2:14
10. The Black Angel's Death Song 3:11
11. European Son 7:51

Selections from Nico: Chelsea Girl (stereo version)
12. Little Sister / Nico 4:28
13. Winter Song / Nico 3:22
14. It Was A Pleasure Then / Nico 8:06
15. Chelsea Girls / Nico 7:28
16. Wrap Your Troubles In Dreams / Nico

DISC 2: (mono version)
1. Sunday Morning 2:57
2. I'm Waiting For The Man 4:47
3. Femme Fatale 2:39
4. Venus In Furs 5:13
5. Run Run Run 4:25
6. All Tomorrow's Parties 6:01
7. Heroin 7:14
8. There She Goes Again 2:42
9. I'll Be Your Mirror 2:16
10. The Black Angel's Death Song 3:14
11. European Son 7:57

The Singles:
12. All Tomorrow's Parties (Single Version) 2:53
13. I'll Be Your Mirror (Single Version) 2:18
14. Sunday Morning (Single Version) 2:59
15. Femme Fatale (Single Version) 2:38

正在读取……

这里是其它用户补充的资源(我也要补充):

暂无补充资源
正在加载,请稍等...

点击查看所有19网友评论

 

(?) [公告]留口水、评论相关规则 | [活动]每日签到 轻松领取电驴经验

    小贴士:
  1. 类似“顶”、“沙发”之类没有营养的文字,对勤劳贡献的楼主来说是令人沮丧的反馈信息。
  2. 提问之前请再仔细看一遍楼主的说明,或许是您遗漏了。
  3. 勿催片。请相信驴友们对分享是富有激情的,如果确有更新版本,您一定能搜索到。
  4. 请勿到处挖坑绊人、招贴广告。既占空间让人厌烦,又没人会搭理,于人于己都无利。
  5. 如果您发现自己的评论不见了,请参考以上4条。