v

您的位置:VeryCD音乐欧美音乐

音乐资源事务区


R.E.M. -《New Adventures In Hi-Fi》[APE]

  • 状态: 精华资源
  • 摘要:
    音乐风格摇滚
    发行时间1996年
    地区美国
    语言英语
  • 时间: 2009/06/20 21:46:45 发布 | 2009/06/21 00:31:26 更新
  • 分类: 音乐  欧美音乐 

tompatti

精华资源: 13

全部资源: 13

相关: 分享到新浪微博   转播到腾讯微博   分享到开心网   分享到人人   分享到QQ空间   订阅本资源RSS更新   美味书签  subtitle
该内容尚未提供权利证明,无法提供下载。
专辑英文名New Adventures In Hi-Fi
歌手R.E.M.
音乐风格摇滚
资源格式APE
发行时间1996年
地区美国
语言英语
简介

IPB Image
简介

VC上R.E.M.几大经典专辑都有了无损格式,独缺这张New Adventures In Hi-Fi。冲着Patti Smith 都在这张专辑了献了声,怎么着也得在VC上把这张无损的补全了分享给大家。

R.E.M.的介绍就请看“留住夏季的风”贴出来的吧,这里就不再重复。
http://www.VeryCD.com/topics/26861/

EAC LOG
Exact Audio Copy V0.99 prebeta 5 from 4. May 2009

EAC extraction logfile from 20. June 2009, 19:26

R.E.M. / New Adventures In Hi-Fi

Used drive : HL-DT-STDVD-ROM GDR8163B Adapter: 3 ID: 0

Read mode : Secure
Utilize accurate stream : Yes
Defeat audio cache : Yes
Make use of C2 pointers : No

Read offset correction : 102
Overread into Lead-In and Lead-Out : No
Fill up missing offset samples with silence : Yes
Delete leading and trailing silent blocks : No
Null samples used in CRC calculations : No
Used interface : Native Win32 interface for Win NT & 2000

Used output format : Internal WAV Routines
Sample format : 44.100 Hz; 16 Bit; Stereo


TOC of the extracted CD

Track | Start | Length | Start sector | End sector
---------------------------------------------------------
1 | 0:00.32 | 4:31.05 | 32 | 20361
2 | 4:31.37 | 5:08.33 | 20362 | 43494
3 | 9:39.70 | 5:26.52 | 43495 | 67996
4 | 15:06.47 | 5:09.30 | 67997 | 91201
5 | 20:16.02 | 5:24.65 | 91202 | 115566
6 | 25:40.67 | 7:17.65 | 115567 | 148406
7 | 32:58.57 | 3:29.25 | 148407 | 164106
8 | 36:28.07 | 4:05.55 | 164107 | 182536
9 | 40:33.62 | 5:33.00 | 182537 | 207511
10 | 46:06.62 | 5:01.45 | 207512 | 230131
11 | 51:08.32 | 2:34.05 | 230132 | 241686
12 | 53:42.37 | 4:12.45 | 241687 | 260631
13 | 57:55.07 | 3:31.73 | 260632 | 276529
14 | 61:27.05 | 4:05.25 | 276530 | 294929


Range status and errors

Selected range

Filename M:\My Musics_Part_I\R.E.M\R.E.M. - New Adventures In Hi-Fi.wav

Peak level 100.0 %
Range quality 99.9 %
Copy CRC E3448DFD
Copy OK

No errors occurred


AccurateRip summary

Track 1 accurately ripped (confidence 200) [BA4DD5A6]
Track 2 accurately ripped (confidence 200) [A53CDA6D]
Track 3 accurately ripped (confidence 200) [4E1E72A1]
Track 4 accurately ripped (confidence 200) [AEE99638]
Track 5 accurately ripped (confidence 200) [3E92795E]
Track 6 accurately ripped (confidence 200) [8432EA99]
Track 7 accurately ripped (confidence 200) [5A9C90A7]
Track 8 accurately ripped (confidence 200) [93B36896]
Track 9 accurately ripped (confidence 200) [253CBB42]
Track 10 accurately ripped (confidence 200) [E695ED04]
Track 11 accurately ripped (confidence 200) [1D842720]
Track 12 accurately ripped (confidence 200) [0E40FDF2]
Track 13 accurately ripped (confidence 200) [A3A35B26]
Track 14 accurately ripped (confidence 200) [13F7A54C]

All tracks accurately ripped

End of status report



专辑曲目

01 HOW THE WEST WAS WON AND WHERE IT GOT US
02 THE WAKE-UP BOMB
03 NEW TEST LEPER
04 UNDERTOW
05 E-BOW THE LETTER
06 LEAVE
07 DEPARTURE
08 BITTERSWEET ME
09 BE MINE
10 BINKIY THE DOORMAT
11 ZITHER
12 SO FAST.SO NEMB
13 LOW DESERT
14 ELECTROLITE

正在读取……

这里是其它用户补充的资源(我也要补充):

暂无补充资源
正在加载,请稍等...

点击查看所有11网友评论

 

(?) [公告]留口水、评论相关规则 | [活动]每日签到 轻松领取电驴经验

    小贴士:
  1. 类似“顶”、“沙发”之类没有营养的文字,对勤劳贡献的楼主来说是令人沮丧的反馈信息。
  2. 提问之前请再仔细看一遍楼主的说明,或许是您遗漏了。
  3. 勿催片。请相信驴友们对分享是富有激情的,如果确有更新版本,您一定能搜索到。
  4. 请勿到处挖坑绊人、招贴广告。既占空间让人厌烦,又没人会搭理,于人于己都无利。
  5. 如果您发现自己的评论不见了,请参考以上4条。