v

您的位置:VeryCD音乐欧美音乐

音乐资源事务区


The Contortions -《Buy》[FLAC]

  • 状态: 精华资源
  • 摘要:
    发行时间1978年
    地区美国
    语言英语
  • 时间: 2009/06/19 22:19:04 发布 | 2009/06/20 11:19:25 更新
  • 分类: 音乐  欧美音乐 

tompatti

精华资源: 13

全部资源: 13

相关: 分享到新浪微博   转播到腾讯微博   分享到开心网   分享到人人   分享到QQ空间   订阅本资源RSS更新   美味书签  subtitle
该内容尚未提供权利证明,无法提供下载。
专辑英文名Buy
资源格式FLAC
发行时间1978年
地区美国
语言英语
简介

IPB Image

No Wave, Free Jazz and Funk

Contort Yourself!

The Contortions, James Chance简介:

1953年出生长大在Milwaukee,Wisconsin的James Chance (又名James White)是一个萨克斯风手、作曲者和歌者。James Chance作为 No Wave浪潮中的一个关键人物,1976年在Wisconsin音乐学校退学之后,移居至纽约,并且迅速的活跃在很多free jazz, no wave punk rock演出中.

Jame Chances以混合了jazz-like和punk的即兴表演而闻名。他曾创建或与多个乐队合作,例如Teenage Jesus & the Jerks, James Chance and the Contortions, James White and the Blacks, The Flaming Demonics, James Chance & the Sardonic Symphonics, and James Chance and Terminal City。

其中之一,The Contortions, 以即兴jazz和funk旋律的融合为风格,他们的现场秀经常以暴力场景结束。

EAC LOG
Exact Audio Copy V0.99 prebeta 5 from 4. May 2009

EAC extraction logfile from 19. June 2009, 21:59

The Contortions / Buy

Used drive : HL-DT-STDVD-ROM GDR8163B Adapter: 3 ID: 0

Read mode : Secure
Utilize accurate stream : Yes
Defeat audio cache : Yes
Make use of C2 pointers : No

Read offset correction : 102
Overread into Lead-In and Lead-Out : No
Fill up missing offset samples with silence : Yes
Delete leading and trailing silent blocks : No
Null samples used in CRC calculations : No
Used interface : Native Win32 interface for Win NT & 2000

Used output format : Internal WAV Routines
Sample format : 44.100 Hz; 16 Bit; Stereo


TOC of the extracted CD

Track | Start | Length | Start sector | End sector
---------------------------------------------------------
1 | 0:00.32 | 2:47.08 | 32 | 12564
2 | 2:47.40 | 2:20.20 | 12565 | 23084
3 | 5:07.60 | 3:21.42 | 23085 | 38201
4 | 8:29.27 | 3:52.43 | 38202 | 55644
5 | 12:21.70 | 4:23.62 | 55645 | 75431
6 | 16:45.57 | 2:43.60 | 75432 | 87716
7 | 19:29.42 | 3:09.38 | 87717 | 101929
8 | 22:39.05 | 3:03.67 | 101930 | 115721
9 | 25:42.72 | 4:15.20 | 115722 | 134866
10 | 29:58.17 | 3:02.48 | 134867 | 148564
11 | 33:00.65 | 3:10.52 | 148565 | 162866
12 | 36:11.42 | 3:22.60 | 162867 | 178076


Range status and errors

Selected range

Filename D:\Music_Part_II\The Contortions - Buy.wav

Peak level 97.2 %
Range quality 100.0 %
Copy CRC 13C9B692
Copy OK

No errors occurred

End of status report



专辑曲目

All tracks by James Chance

"Design to Kill" - 2:47
"My Infatuation" - 2:20
"I Don't Want to Be Happy" - 3:21
"Anesthetic" - 3:52
"Contort Yourself" - 4:23
"Throw Me Away" - 2:43
"Roving Eye" - 3:09
"Twice Removed" - 3:03
"Bedroom Athlete" - 4:15

Bonus tracks recorded at CBGB's, Spring, 1978

"Throw Me Away" (Live) (3:04)
"Twice Removed" (Live) (3:12)
"Jailhouse Rock" (Jerry Leiber, Mike Stoller) (Live) (3:23)

正在读取……

这里是其它用户补充的资源(我也要补充):

暂无补充资源
正在加载,请稍等...

点击查看所有7网友评论

 

(?) [公告]留口水、评论相关规则 | [活动]每日签到 轻松领取电驴经验

    小贴士:
  1. 类似“顶”、“沙发”之类没有营养的文字,对勤劳贡献的楼主来说是令人沮丧的反馈信息。
  2. 提问之前请再仔细看一遍楼主的说明,或许是您遗漏了。
  3. 勿催片。请相信驴友们对分享是富有激情的,如果确有更新版本,您一定能搜索到。
  4. 请勿到处挖坑绊人、招贴广告。既占空间让人厌烦,又没人会搭理,于人于己都无利。
  5. 如果您发现自己的评论不见了,请参考以上4条。