v

您的位置:VeryCD音乐欧美音乐

音乐资源事务区


Robbie Williams -《Rudebox》[APE]

  • 状态: 精华资源
  • 摘要:
    音乐风格流行
    发行时间2006年10月23日
    地区美国
    语言英语
  • 时间: 2009/06/18 11:59:51 发布 | 2009/06/27 00:34:03 更新
  • 分类: 音乐  欧美音乐 

Jeioc

精华资源: 25

全部资源: 35

相关: 分享到新浪微博   转播到腾讯微博   分享到开心网   分享到人人   分享到QQ空间   订阅本资源RSS更新   美味书签  subtitle
该内容尚未提供权利证明,无法提供下载。
专辑英文名Rudebox
音乐风格流行
资源格式APE
发行时间2006年10月23日
地区美国
语言英语
简介

IPB Image

内容介绍:

坏小子罗比颠覆以往,最具音乐内涵2006全新专辑
英国乐坛重量级制作人William Orbit,流行教主团体 宠物店男孩,前Duran Duran团员Stephen Duffy等黄金阵容量身打造
英国排行小公主 莉莉艾伦 跨刀合声献唱

MOJO音乐杂志4星优质评价
Uncut杂志:‘坏小子罗比音乐生涯中最有趣、最冒险和最具生命力的作品’

一溜烟,罗比威廉斯的个人音乐旅程过了10年了,罗比的第9张大碟【Rudebox】将可能是一张最能定义这个流行乐坛天才坏小子的专辑,从音乐上而言,这是一张风格相当广阔,幽默风趣,荣耀音乐历史,性格最真诚,把所有情绪完全赤裸的作品,就让最真实的罗比与他的音乐创作灵感彻底的撞击一下,撞出他这趟有如云霄飞车一般刺激的音乐生涯中最私密,最具冒险性格的音乐。来吧!体验最内向的罗比,最放肆的罗比,一起解构,一起重组罗比的音乐世界吧!

基本上,【Rudebox】是一张汲取了嘻哈,灵魂,放克大师George Clinton所带动的p-funk节奏,独立摇滚,英国90年代风行一时的baggy节奏,acid house和80年代初期的电子/浩室,经典的流行音乐与当代舞曲音乐等节奏元素制作而成的酷炫专辑,信不信由你,这也是一张粉流行的专辑,只不过,不是普通的流行音乐专辑就是了!!

【Rudebox】专辑的黄金制作阵容包括了打造玛丹娜4座葛莱美奖得奖专辑“Ray Of Light”的英国电音制作奇葩William Orbit,史上最酷的流行电子音乐双人组Pet Shop Boys,英国迪斯可/浩室舞曲怪杰Dave 'Joey Negro'Lee[*也曾化名为Jakatta],驰骋英国舞场近20年,曾帮罗比打造过冠军曲"Rock DJ"的浩室双人组合Soul Mekanik,制作过Lily Allen专辑的纽约DJ/制作高手Mark Ronson。

【Rudebox】专辑里有全新创作曲,有经典名曲新玩法,还有混搭多样风格的东西,首支进驻英国金榜第4名的单曲"Rudebox"是取样自老牌雷鬼摇摆乐组合Sly & Robbie名曲"Boops (Here To Go)",歌曲中将流行,电音,摇滚与放克等节奏元素与罗比独特的歌声调和成一种奇特的节奏空间,听起来就像是罗比身处1983年喧嚣的纽约街头,跳着带电的保家乐舞。Mark Ronson为专辑制作了4首歌曲,其中包括内定为第2首单曲的"Lovelight",在这首重唱自英国灵魂美声男歌手Lewis Taylor的歌曲中,罗比不但秀了精湛的假音唱腔,还把歌曲变成一首迷幻的迪斯可舞曲,而英国排行小公主Lily Allen特地在同样由Ronson所制作的"Bongo Bong And Je Ne T'aime Plus","Keep On"这2首歌曲中担任和声,"Bongo Bong And Je Ne T'aime Plus"是将法国籍拉丁民谣歌手Manu Chao的这首世界音乐经典作感染上颓废、放荡的性格。Pet Shop Boys与罗比合作2首歌曲,一首是向玛丹娜致敬的"She's Madonna",一首是重新把玩Pet Shop Boys自己也曾翻唱过,来自纽约电子舞曲乐团My Robot Friend的歌曲"We're The Pet Shop Boys"。

曾为罗比创作过冠军曲"Radio",目前同时是罗比巡回演唱中担任吉他伴奏的Stephen Duffy为罗比打造了融汇了放克摇滚与baggy风格的惊世大作"Keep On"以及重现80年代高动能电子流行乐劲歌"Kisss Me"。罗比也实现了多年来渴望与William Orbit合作的梦想,两人合作了一首罗比在10年前所创作的迷幻风情小品"Summertime",还重新翻玩了罗比最喜欢的Human League单曲"Louise"。

【Rudebox】是罗比威廉斯重新调整创作步伐的专辑,同时也是一张最具音乐多元内涵的作品。

引用
TITLE "Rudebox"
LE "Rudebox"
LE "Rudebox"
LE "Rudebox"
LE "Rudebox"
LE "Rudebox"
LE "Rudebox"
LE "Rudebox"
LE "Rudebox"
LE "Rudebox"
LE "Rudebox"
LE "Rudebox"
LE "Rudebox"
LE "Rudebox"
LE "Rudebox"
LE "Rudebox"
FORMER "Robbie Williams"
FILE "Robbie Williams - Rudebox.ape" WAVE
TRACK 01 AUDIO
TITLE "Rudebox"
PERFORMER "Robbie Williams"
INDEX 01 00:00:00
TRACK 02 AUDIO
TITLE "Viva Life on Mars"
PERFORMER "Robbie Williams"
INDEX 01 04:45:09
TRACK 03 AUDIO
TITLE "Lovelight"
PERFORMER "Robbie Williams"
INDEX 01 09:35:69
TRACK 04 AUDIO
TITLE "Bongo Bong and Je ne t'aime plus"
PERFORMER "Robbie Williams"
INDEX 01 13:37:74
TRACK 05 AUDIO
TITLE "She's Madonna"
PERFORMER "Robbie Williams"
INDEX 01 18:26:12
TRACK 06 AUDIO
TITLE "Keep On"
PERFORMER "Robbie Williams"
INDEX 01 22:42:55
TRACK 07 AUDIO
TITLE "Good Doctor"
PERFORMER "Robbie Williams"
INDEX 01 27:01:34
TRACK 08 AUDIO
TITLE "The Actor"
PERFORMER "Robbie Williams"
INDEX 01 30:17:39
TRACK 09 AUDIO
TITLE "Never Touch That Switch"
PERFORMER "Robbie Williams"
INDEX 01 34:23:43
TRACK 10 AUDIO
TITLE "Louise"
PERFORMER "Robbie Williams"
INDEX 01 37:10:22
TRACK 11 AUDIO
TITLE "We're the Pet Shop Boys"
PERFORMER "Robbie Williams"
INDEX 01 41:56:62
TRACK 12 AUDIO
TITLE "Burslem Normals"
PERFORMER "Robbie Williams"
INDEX 01 46:53:17
TRACK 13 AUDIO
TITLE "Kiss Me"
PERFORMER "Robbie Williams"
INDEX 01 50:43:27
TRACK 14 AUDIO
TITLE "The 80's"
PERFORMER "Robbie Williams"
INDEX 01 53:59:60
TRACK 15 AUDIO
TITLE "The 90's"
PERFORMER "Robbie Williams"
INDEX 01 58:17:20
TRACK 16 AUDIO
TITLE "Summertime / Dickhead"
PERFORMER "Robbie Williams"
INDEX 01 63:50:73



专辑曲目

01.Rudebox
02.Viva Life On Mars
03.Lovelight
04.Bongo Bong / Je Ne T' Aime Plus
05.She's Madonna
06.Keep On
07.Good Doctor
08.The Actor
09.Never Touch That Switch
10.Louise
11.We're The Pet Shop Boys - Robbie Williams With Pet Shop Boys
12.Burslem Normals
13.Kiss Me
14.The 80's
15.The 90's
16.Summertime

正在读取……

这里是其它用户补充的资源(我也要补充):

暂无补充资源
正在加载,请稍等...

点击查看所有35网友评论

 

(?) [公告]留口水、评论相关规则 | [活动]每日签到 轻松领取电驴经验

    小贴士:
  1. 类似“顶”、“沙发”之类没有营养的文字,对勤劳贡献的楼主来说是令人沮丧的反馈信息。
  2. 提问之前请再仔细看一遍楼主的说明,或许是您遗漏了。
  3. 勿催片。请相信驴友们对分享是富有激情的,如果确有更新版本,您一定能搜索到。
  4. 请勿到处挖坑绊人、招贴广告。既占空间让人厌烦,又没人会搭理,于人于己都无利。
  5. 如果您发现自己的评论不见了,请参考以上4条。