v

您的位置:VeryCD音乐欧美音乐

音乐资源事务区


R.Kelly -《Happy People/U Saved Me》[APE]

  • 状态: 精华资源
  • 摘要:
    音乐风格节奏布鲁斯
    发行时间2004年8月14日
    地区美国
    语言英语
  • 时间: 2009/06/18 07:16:25 发布 | 2009/06/20 20:24:58 更新
  • 分类: 音乐  欧美音乐 

Jeioc

精华资源: 25

全部资源: 35

相关: 分享到新浪微博   转播到腾讯微博   分享到开心网   分享到人人   分享到QQ空间   订阅本资源RSS更新   美味书签  subtitle
该内容尚未提供权利证明,无法提供下载。
专辑英文名Happy People/U Saved Me
歌手R.Kelly
音乐风格节奏布鲁斯
资源格式APE
发行时间2004年8月14日
地区美国
语言英语
简介

IPB Image

专辑简介:

R. Kelly是美国R&B和说唱音乐中最出色的歌手,制作人和词曲作者之一,由他制作的音乐总能很好的把说唱音乐,R&B音乐以及灵魂乐完美的融合在一起并创造出优美的旋律,因而能够得到R. Kelly制作的专辑决不会让歌迷的耳朵受罪,同时他本人还是90年代专辑销量最好的男歌手之一。曾经由R. Kelly参与录制专辑或者帮助创作歌曲的歌星包括Whitney Houston,Michael Jackson,Janet Jackson,Luther Vandross等诸多音乐界巨腕。

1996年,R. Kelly为篮球上帝迈克尔·乔丹(Michael Jordan)的电影《Space Jam》录制的单曲《I Believe I Can Fly》成为了他最伟大的单曲之一,在1997年度第40届格莱美颁奖中,R. Kelly凭借着这首单曲,而一举获得了最佳影视歌曲(Best Song Written Specifically For A Motion Picture Or For Television),最佳R&B男歌手(Best Male R&B Vocal Performance),最佳R&B歌曲(Best Rhythm & Blues Song)三项大奖。这也让R. Kelly个人的音乐事业进入了全盛期,随后他创作的单曲《Gotham City》又入选当年的动作大片《蝙蝠侠与罗宾(Batman & Robin)》的电影原声。在1998年,R. Kelly发行了他迄今为止最为畅销的专辑《R.》,这张双CD的大制作专辑的美国本土销量超过了800万张。与流行天后Celine Dion合作的单曲《I'm Your Angel》再次垄断了各大排行榜近两个月的时间。



本人听了之后强烈推荐这张专辑。声音确实太打动人心了。




引用
TITLE "Happy People / U Saved Me (disc 1: Happy People)"
LE "Happy People / U Saved Me (disc 1: Happy People)"
LE "Happy People / U Saved Me (disc 1: Happy People)"
LE "Happy People / U Saved Me (disc 1: Happy People)"
LE "Happy People / U Saved Me (disc 1: Happy People)"
LE "Happy People / U Saved Me (disc 1: Happy People)"
LE "Happy People / U Saved Me (disc 1: Happy People)"
LE "Happy People / U Saved Me (disc 1: Happy People)"
LE "Happy People / U Saved Me (disc 1: Happy People)"
LE "Happy People / U Saved Me (disc 1: Happy People)"
LE "Happy People / U Saved Me (disc 1: Happy People)"
FORMER "R. Kelly"
FILE "R. Kelly - Happy People U Saved Me (disc 1 Happy People).ape" WAVE
TRACK 01 AUDIO
TITLE "Weatherman"
PERFORMER "R.Kelly"
INDEX 01 00:00:00
TRACK 02 AUDIO
TITLE "Red Carpet (Pause, Flash)"
PERFORMER "R.Kelly"
INDEX 01 02:41:00
TRACK 03 AUDIO
TITLE "Love Signals"
PERFORMER "R.Kelly"
INDEX 01 06:18:52
TRACK 04 AUDIO
TITLE "Love Street"
PERFORMER "R.Kelly"
INDEX 01 11:47:45
TRACK 05 AUDIO
TITLE "Ladies' Night (Treat Her Like Heaven)"
PERFORMER "R.Kelly"
INDEX 01 16:24:50
TRACK 06 AUDIO
TITLE "If"
PERFORMER "R.Kelly"
INDEX 01 20:09:72
TRACK 07 AUDIO
TITLE "The Greatest Show on Earth"
PERFORMER "R.Kelly"
INDEX 01 24:59:62
TRACK 08 AUDIO
TITLE "It's Your Birthday"
PERFORMER "R.Kelly"
INDEX 01 29:48:12
TRACK 09 AUDIO
TITLE "Steppin' Into Heaven"
PERFORMER "R.Kelly"
INDEX 01 32:32:12
TRACK 10 AUDIO
TITLE "If I Could Make the World Dance"
PERFORMER "R.Kelly"
INDEX 01 36:27:10
TRACK 11 AUDIO
TITLE "Happy People"
PERFORMER "R.Kelly"
INDEX 01 41:55:50


TITLE "Happy People / U Saved Me (disc 2: U Saved Me)"
LE "Happy People / U Saved Me (disc 2: U Saved Me)"
LE "Happy People / U Saved Me (disc 2: U Saved Me)"
LE "Happy People / U Saved Me (disc 2: U Saved Me)"
LE "Happy People / U Saved Me (disc 2: U Saved Me)"
LE "Happy People / U Saved Me (disc 2: U Saved Me)"
LE "Happy People / U Saved Me (disc 2: U Saved Me)"
LE "Happy People / U Saved Me (disc 2: U Saved Me)"
LE "Happy People / U Saved Me (disc 2: U Saved Me)"
LE "Happy People / U Saved Me (disc 2: U Saved Me)"
FORMER "R. Kelly"
FILE "R. Kelly - Happy People U Saved Me (disc 2 U Saved Me).ape" WAVE
TRACK 01 AUDIO
TITLE "3-Way Phone Call (feat. Kelly Price, Kim Burrell and Maurice Mahon)"
PERFORMER "R.Kelly"
INDEX 01 00:00:00
TRACK 02 AUDIO
TITLE "U Saved Me"
PERFORMER "R.Kelly"
INDEX 01 07:03:32
TRACK 03 AUDIO
TITLE "Prayer Changes"
PERFORMER "R.Kelly"
INDEX 01 13:17:15
TRACK 04 AUDIO
TITLE "How Did You Manage"
PERFORMER "R.Kelly"
INDEX 01 19:41:47
TRACK 05 AUDIO
TITLE "I Surrender"
PERFORMER "R.Kelly"
INDEX 01 23:26:67
TRACK 06 AUDIO
TITLE "When I Think About You"
PERFORMER "R.Kelly"
INDEX 01 28:12:37
TRACK 07 AUDIO
TITLE "The Diary of Me"
PERFORMER "R.Kelly"
INDEX 01 32:19:22
TRACK 08 AUDIO
TITLE "Spirit"
PERFORMER "R.Kelly"
INDEX 01 36:39:02
TRACK 09 AUDIO
TITLE "Leap of Faith"
PERFORMER "R.Kelly"
INDEX 01 40:36:42
TRACK 10 AUDIO
TITLE "Peace"
PERFORMER "R.Kelly"
INDEX 01 45:28:30



专辑曲目

CD1

01.Intro (Weatherman)
02.Red Carpet
03.Love Signals
04.Love Street
05.Ladies Night (Treat Her Like Heaven)
06.If
07.Greatest Show on Earth
08.Steppin into Heaven
09.If I Can Make the World Dance
10.Happy People

CD2

01.3 Way Phone Call
02.U Saved Me
03.Prayers Change
04.How Did U Manage
05.I Surrender
06.When I Talk About You
07.The Diary of Me
08.Spirit
09.Leap of Faith
10.Peace

正在读取……

这里是其它用户补充的资源(我也要补充):

暂无补充资源
正在加载,请稍等...

点击查看所有51网友评论

 

(?) [公告]留口水、评论相关规则 | [活动]每日签到 轻松领取电驴经验

    小贴士:
  1. 类似“顶”、“沙发”之类没有营养的文字,对勤劳贡献的楼主来说是令人沮丧的反馈信息。
  2. 提问之前请再仔细看一遍楼主的说明,或许是您遗漏了。
  3. 勿催片。请相信驴友们对分享是富有激情的,如果确有更新版本,您一定能搜索到。
  4. 请勿到处挖坑绊人、招贴广告。既占空间让人厌烦,又没人会搭理,于人于己都无利。
  5. 如果您发现自己的评论不见了,请参考以上4条。