v

您的位置:VeryCD音乐欧美音乐

音乐资源事务区


Tom Verlaine -《Dreamtime》原版CD[APE]

  • 状态: 精华资源
  • 摘要:
    发行时间1981年
    地区美国
    语言英语
  • 时间: 2009/06/12 13:19:55 发布 | 2009/06/12 18:29:58 更新
  • 分类: 音乐  欧美音乐 

tompatti

精华资源: 13

全部资源: 13

相关: 分享到新浪微博   转播到腾讯微博   分享到开心网   分享到人人   分享到QQ空间   订阅本资源RSS更新   美味书签  subtitle
该内容尚未提供权利证明,无法提供下载。
专辑英文名Dreamtime
歌手Tom Verlaine
资源格式APE
版本原版CD
发行时间1981年
地区美国
语言英语
简介

IPB Image
IPB Image
在Television解散之后,Tom Verlaine具有非常鲜明个人风格的一张专辑。

知道Tom Verlaine的朋友,想必对Television一定十分了解。在此就不转贴Television的介绍了。

Tom Verlaine是著名的Television乐队核心人物,于1949年生人,68年移居先锋诞出的格林尼治村,早先是个古典钢琴演奏家。 70年代,他和他的两个朋友Richard Hell和Billy Ficca组建了乐队The Neon Boys(霓虹男孩),他担任吉他手、主唱和键盘,Hell担任贝斯,Ficca是鼓。之后,确切的说是1973年,节奏吉他手Richard Lloyd加入,乐队更名为Television并开始在纽约的Town House演出,也得到了很多地下音乐爱好者的追随。1973年是一个比性手枪还老的年份,事实上他们也的确影响了性手枪--此时,Tom Verlaine24岁。

EAC LOG FILE
Exact Audio Copy V0.99 prebeta 5 from 4. May 2009

EAC extraction logfile from 12. June 2009, 12:34

Tom Verlaine / Dreamtime

Used drive : HL-DT-STDVD-ROM GDR8163B Adapter: 3 ID: 0

Read mode : Secure
Utilize accurate stream : Yes
Defeat audio cache : Yes
Make use of C2 pointers : No

Read offset correction : 102
Overread into Lead-In and Lead-Out : Yes
Fill up missing offset samples with silence : Yes
Delete leading and trailing silent blocks : No
Null samples used in CRC calculations : No
Used interface : Native Win32 interface for Win NT & 2000

Used output format : Internal WAV Routines
Sample format : 44.100 Hz; 16 Bit; Stereo


TOC of the extracted CD

Track | Start | Length | Start sector | End sector
---------------------------------------------------------
1 | 0:00.32 | 3:39.43 | 32 | 16499
2 | 3:40.00 | 4:01.32 | 16500 | 34606
3 | 7:41.32 | 3:58.58 | 34607 | 52514
4 | 11:40.15 | 3:55.70 | 52515 | 70209
5 | 15:36.10 | 3:18.65 | 70210 | 85124
6 | 18:55.00 | 3:24.37 | 85125 | 100461
7 | 22:19.37 | 3:28.40 | 100462 | 116101
8 | 25:48.02 | 4:14.65 | 116102 | 135216
9 | 30:02.67 | 4:49.13 | 135217 | 156904
10 | 34:52.05 | 3:28.67 | 156905 | 172571
11 | 38:20.72 | 4:18.53 | 172572 | 191974
12 | 42:39.50 | 4:09.05 | 191975 | 210654


Range status and errors

Selected range

Filename H:\QVOD_Media\Tom Verlaine - Dreamtime.wav

Peak level 100.0 %
Range quality 99.9 %
Copy CRC 081187F0
Copy OK

No errors occurred

End of status report
IPB Image



专辑曲目

Tom Verlaine - Dreamtime

01. There's a Reason
02. Penetration
03. Always
04. The Blue Robe
05. Without a Word
06. Mr Blur
07. Fragile
08. A Future in Noise
09. Down on the Farm
10. Mary Marie
11. The Blue Robe (Alternate Version)
12. Always (Alternate Version)

正在读取……

这里是其它用户补充的资源(我也要补充):

暂无补充资源
正在加载,请稍等...

点击查看所有6网友评论

 

(?) [公告]留口水、评论相关规则 | [活动]每日签到 轻松领取电驴经验

    小贴士:
  1. 类似“顶”、“沙发”之类没有营养的文字,对勤劳贡献的楼主来说是令人沮丧的反馈信息。
  2. 提问之前请再仔细看一遍楼主的说明,或许是您遗漏了。
  3. 勿催片。请相信驴友们对分享是富有激情的,如果确有更新版本,您一定能搜索到。
  4. 请勿到处挖坑绊人、招贴广告。既占空间让人厌烦,又没人会搭理,于人于己都无利。
  5. 如果您发现自己的评论不见了,请参考以上4条。